↑↓Torrent.by
Поиск
Логин: Регистрация
Пароль: Восстановить пароль
Загрузка...

Человек-невидимка / The Invisible Man (2017) WEBRip-AVC | L2

Скачать chelovek-nevidimka-the-invisible-man-2017-webrip-avc-l2.torrent
U Магнитная ссылка Размер: 1.22 GB Раздают: 140 Качают: 86 Добавлен: 2018-06-11 18:23:54
Человек-невидимка / The Invisible Man (2017) WEBRip-AVC | L2

Название: Человек-невидимка
Оригинальное название: The Invisible Man
Год выхода: 2017
Жанр: Триллер
Режиссер: Кьян Бартлетт, Кэрол Дамген
В ролях: Рене Абеляр, Захари Брей, Крис Кун, Кэрол Дамген, Сара Навратил, Пол Жак, Леви Гомес и другие.
О фильме:
Современный пересказ классического романа Ге́рберт Джордж Уэ́ллса - Человека-невидимки. Мотивированный смертью его сына, Гриффина, блестящий, но эксцентричный ученый обнаруживает метод к невидимости. Он...

Страна: США
Продолжительность: 01:32:06
Перевод: Любительский (двухголосый закадровый) | HiWay Grope

Файл
Кодек: MPEG-4 AVC/x.264
Качество: WEBRip-AVC
Видео: 960x400, 25.000 fps, ~1660 kbps, 0.173 bit/pixel
Звук:
Аудио rus: AC3, 48 kHz, 2 ch, 192 Kbps
Субтитры: отсутствуют

Реклама: присутствует

Семпл

Релиз от: HiWay Grope
[+] MediaInfo:

General
Unique ID                                : 132142999852310996766798961698983742348 (0x6369D0E7B6BD4181450322347AC98B8C)
Complete name                            : E:The.Invisible.Man.2017.WEBRip.HiWayGropeThe.Invisible.Man.2017.WEBRip-AVC.HiWayGrope.mkv
Format                                   : Matroska
Format version                           : Version 4 / Version 2
File size                                : 1.22 GiB
Duration                                 : 1h 32mn
Overall bit rate                         : 1 890 Kbps
Encoded date                             : UTC 2018-06-11 12:07:03
Writing application                      : mkvmerge v21.0.0 ('Tardigrades Will Inherit The Earth') 64-bit
Writing library                          : libebml v1.3.5 + libmatroska v1.4.8

Video
ID                                       : 1
Format                                   : AVC
Format/Info                              : Advanced Video Codec
Format profile                           : Main@L4.1
Format settings, CABAC                   : Yes
Format settings, ReFrames                : 4 frames
Codec ID                                 : V_MPEG4/ISO/AVC
Duration                                 : 1h 32mn
Bit rate                                 : 1 660 Kbps
Width                                    : 960 pixels
Height                                   : 400 pixels
Display aspect ratio                     : 2.40:1
Frame rate mode                          : Constant
Frame rate                               : 25.000 fps
Standard                                 : PAL
Color space                              : YUV
Chroma subsampling                       : 4:2:0
Bit depth                                : 8 bits
Scan type                                : Progressive
Bits/(Pixel*Frame)                       : 0.173
Stream size                              : 1.07 GiB (88%)
Language                                 : English
Default                                  : Yes
Forced                                   : No
Color range                              : Limited
Color primaries                          : BT.601 NTSC
Transfer characteristics                 : BT.601
Matrix coefficients                      : BT.601

Audio
ID                                       : 2
Format                                   : AC-3
Format/Info                              : Audio Coding 3
Mode extension                           : CM (complete main)
Format settings, Endianness              : Big
Codec ID                                 : A_AC3
Duration                                 : 1h 32mn
Bit rate mode                            : Constant
Bit rate                                 : 192 Kbps
Channel(s)                               : 2 channels
Channel positions                        : Front: L R
Sampling rate                            : 48.0 KHz
Frame rate                               : 31.250 fps (1536 spf)
Compression mode                         : Lossy
Stream size                              : 127 MiB (10%)
Language                                 : Russian
Default                                  : Yes
Forced                                   : No




Скриншоты:
[+] Всего файлов в раздаче - 1:
The.Invisible.Man.2017.WEBRip-AVC.HiWayGrope.mkv1.22 GB

Текущая раздача:
ДатаКомментарии    РазмерПиры
2018-06-11 U Человек-невидимка / The Invisible Man (2017) WEBRip-AVC | L2 1.22 GB ↑ 140 ↓ 86

Показать еще раздачи по запросу человек:
2018-08-14 U Новый человек [01-17 из 17] (2018) WEB-DLRip 4.34 GB ↑ 27 ↓ 39
2018-08-14 U Новый человек [01-17 из 17] (2018) WEB-DL 720p от Getty 8.01 GB ↑ 37 ↓ 40
2018-08-14 U Новый человек [01-17 из 17] (2018) WEB-DL 1080p 15.41 GB ↑ 38 ↓ 36
2018-08-13 U Новый человек [01-17 из 17] (2018) WEB-DLRip-AVC от Files-x 5.20 GB ↑ 54 ↓ 140
2018-08-07 U Новый человек [01-14 из 17] (2018) WEB-DLRip 3.58 GB ↑ 45 ↓ 42
2018-08-07 U Новый человек [01-14 из 17] (2018) WEB-DL 720p от Files-x 7.39 GB ↑ 25 ↓ 39
2018-08-03 U Человек-акула / Hammerhead (2005) DVDRip | P 1.46 GB ↑ 30 ↓ 12

Отзывы
Зарегистрируйтесь чтобы добавить комментарий.
Обратная связь
Copyleft ©