↑↓Torrent.by
Поиск
Логин: Регистрация
Пароль: Восстановить пароль
Загрузка...

Сборщик долгов / The Debt Collector (2018) WEBRip 720p | L2

Скачать sborschik-dolgov-the-debt-collector-2018-webrip-720p-l2.torrent
U Магнитная ссылка Размер: 3.03 GB Раздают: 101 Качают: 80 Добавлен: 2018-06-11 18:24:22
Сборщик долгов / The Debt Collector (2018) WEBRip 720p | L2

Название: Сборщик долгов
Оригинальное название: The Debt Collector
Год выхода: 2018
Жанр: Боевик
Режиссер: Джесси Джонсон
В ролях: Скотт Эдкинс, Майкл Паре, Тони Тодд, Владимир Кулих, Роберт Раслер, Луис Мэндилор, Селина Ло, Нихан Гар, Сара Финли, Ессам Феррис и другие
О фильме:
Чтобы спасти свою школу, мастер смешанных боевых искусств нанимается коллектором к криминальному авторитету, но сталкивается с необходимостью адаптировать свои моральные устои к беспощадным правилам мира больших денег.

Страна: США, Tarzana Product
Продолжительность: 01:36:25
Перевод: Любительский (двухголосый закадровый) | HiWay Grope

Файл
Кодек: MPEG-4 AVC/x.264
Качество: WEBRip 720p
Видео: 1280x544, 25.000 fps, ~4029 kbps, 0.231 bit/pixel
Звук:
Аудио rus: AC3, 48 kHz, 6 ch, 384 Kbps
Субтитры: отсутствуют

Реклама: присутствует

Семпл

Релиз от: HiWay Grope


[+] MediaInfo:

General
Unique ID                                : 245118436751830935393172879393799109354 (0xB86817FE7044159B80C1595E31457AEA)
Complete name                            : E:The.Debt.Collector.2018.720p.WEBRip.HiWayGropeThe.Debt.Collector.2018.720p.WEBRip.HiWayGrope.mkv
Format                                   : Matroska
Format version                           : Version 2
File size                                : 3.03 GiB
Duration                                 : 1h 36mn
Overall bit rate                         : 4 503 Kbps
Encoded date                             : UTC 2018-06-11 11:07:11
Writing application                      : mkvmerge v3.3.0 ('Language') built on Mar 24 2010 14:59:24
Writing library                          : libebml v0.8.0 + libmatroska v0.9.0

Video
ID                                       : 1
Format                                   : AVC
Format/Info                              : Advanced Video Codec
Format profile                           : Main@L3.1
Format settings, CABAC                   : Yes
Format settings, ReFrames                : 3 frames
Codec ID                                 : V_MPEG4/ISO/AVC
Duration                                 : 1h 36mn
Bit rate                                 : 4 029 Kbps
Width                                    : 1 280 pixels
Height                                   : 544 pixels
Display aspect ratio                     : 2.35:1
Frame rate mode                          : Constant
Frame rate                               : 25.000 fps
Standard                                 : PAL
Color space                              : YUV
Chroma subsampling                       : 4:2:0
Bit depth                                : 8 bits
Scan type                                : Progressive
Bits/(Pixel*Frame)                       : 0.231
Stream size                              : 2.71 GiB (89%)
Language                                 : English
Default                                  : Yes
Forced                                   : No
Color range                              : Limited
Color primaries                          : BT.601 NTSC
Transfer characteristics                 : BT.601
Matrix coefficients                      : BT.601

Audio
ID                                       : 2
Format                                   : AC-3
Format/Info                              : Audio Coding 3
Mode extension                           : CM (complete main)
Format settings, Endianness              : Big
Codec ID                                 : A_AC3
Duration                                 : 1h 36mn
Bit rate mode                            : Constant
Bit rate                                 : 384 Kbps
Channel(s)                               : 6 channels
Channel positions                        : Front: L C R, Side: L R, LFE
Sampling rate                            : 48.0 KHz
Frame rate                               : 31.250 fps (1536 spf)
Compression mode                         : Lossy
Stream size                              : 265 MiB (9%)
Default                                  : Yes
Forced                                   : No




Скриншоты:
[+] Всего файлов в раздаче - 1:
The.Debt.Collector.2018.720p.WEBRip.HiWayGrope.mkv3.03 GB

Текущая раздача:
ДатаКомментарии    РазмерПиры
2018-06-11 U Сборщик долгов / The Debt Collector (2018) WEBRip 720p | L2 3.03 GB ↑ 101 ↓ 80

Похожие раздачи по запросу - сборщик:
2018-06-11 U Сборщик долгов / The Debt Collector (2018) WEBRip | L2 1.27 GB ↑ 166 ↓ 113

Отзывы
Зарегистрируйтесь чтобы добавить комментарий.
Обратная связь
Copyleft ©