↑↓Torrent.by
Поиск
Логин: Регистрация
Пароль: Восстановить пароль
Загрузка...

Импульс / Impulse [S01] (2018) WEBRip 720p | OMSKBIRD

Скачать impuls-impulse-s01-2018-webrip-720p-omskbird.torrent
U Магнитная ссылка Размер: 10.78 GB Раздают: 87 Качают: 81 Добавлен: 2018-06-11 22:06:06
Импульс / Impulse [S01] (2018) WEBRip 720p | OMSKBIRD

Название: Импульс
Оригинальное название: Impulse
Год выхода: 2018
Жанр: фантастика, боевик
Режиссер: Шерин Дабис, Эд Фрэйман
В ролях: Крэйг Арнольд, Сара Дежарден, Мэдди Хассон, Тэннер Стайн, Дэниэл Маслани, Каллум Кит Ренни и др.

О фильме:
16-летняя девушка Генри Коул открывает в себе способность к телепортации, которая не поддается ее контролю.
Действие сериала разворачивается в том же мире, что и события фильма "Телепорт" 2008 года.

 
Страна: США
Продолжительность: ~ 44 мин. серия
Перевод: Любительский (многоголосый закадровый) | OMSKBIRD

Файл
Кодек: MPEG-4 AVC
Качество: WEBRip 720p
Видео: AVC, 1280x720 (16:9), 23.976 fps, ~ 3000 kbps
Звук: Аудио rus: AC-3, 48 KHz, 2 ch, 192 kbps | OMSKBIRD records

Семпл

Присутствует реклама!


[+] Mediainfo:

General
Unique ID                   : 227556964486836202264734637123852627617 (0xAB31E08FE930BC159089D29BE36CEEA1)
Complete name               : H:Мои ДокументыВидеоРАЗДАЧИИМПУЛЬСImpulse S01 WEBRip 720p (OMSKBIRD)Impulse S01E01 WEBRip 720p (OMSKBIRD).mkv
Format                      : Matroska
Format version              : Version 2
File size                   : 1.05 GiB
Duration                    : 47 min 54 s
Overall bit rate            : 3 149 kb/s
Encoded date                : UTC 2018-06-07 17:45:56
Writing application         : mkvmerge v4.0.0 ('The Stars were mine') сборка от Jun  6 2010 16:18:42
Writing library             : libebml v1.0.0 + libmatroska v1.0.0

Video
ID                          : 1
Format                      : AVC
Format/Info                 : Advanced Video Codec
Format profile              : Main@L4.1
Format settings, CABAC      : Yes
Format settings, RefFrames  : 3 frames
Codec ID                    : V_MPEG4/ISO/AVC
Duration                    : 47 min 54 s
Bit rate                    : 2 894 kb/s
Width                       : 1 280 pixels
Height                      : 720 pixels
Display aspect ratio        : 16:9
Frame rate mode             : Constant
Frame rate                  : 23.976 (24000/1001) FPS
Standard                    : NTSC
Color space                 : YUV
Chroma subsampling          : 4:2:0
Bit depth                   : 8 bits
Scan type                   : Progressive
Bits/(Pixel*Frame)          : 0.131
Stream size                 : 992 MiB (92%)
Language                    : English
Default                     : Yes
Forced                      : No
Color range                 : Limited
Color primaries             : BT.709
Transfer characteristics    : BT.709
Matrix coefficients         : BT.709

Audio
ID                          : 2
Format                      : AC-3
Format/Info                 : Audio Coding 3
Format settings, Endianness : Big
Codec ID                    : A_AC3
Duration                    : 47 min 54 s
Bit rate mode               : Constant
Bit rate                    : 192 kb/s
Channel(s)                  : 2 channels
Channel positions           : Front: L R
Sampling rate               : 48.0 kHz
Frame rate                  : 31.250 FPS (1536 SPF)
Bit depth                   : 16 bits
Compression mode            : Lossy
Stream size                 : 65.8 MiB (6%)
Service kind                : Complete Main
Default                     : Yes
Forced                      : No




[+] Осторожно - спойлер!
Пересмотрел фильм, у меня на винте лежит Телепорт, думал куплю телек пересмотрю. С телеком не сложилось как-то, по старинке - на мониторе. Ну, кайф немыслимый, фильм класс просто. Монитор 22", звук 5.1 внешняя карта к ноуту. Наболело,
под спойлер спрятал.



Скриншоты:
[+] Всего файлов в раздаче - 10:
Impulse S01E01 WEBRip 720p (OMSKBIRD).mkv1.05 GB
Impulse S01E02 WEBRip 720p (OMSKBIRD).mkv1.06 GB
Impulse S01E03 WEBRip 720p (OMSKBIRD).mkv1.06 GB
Impulse S01E04 WEBRip 720p (OMSKBIRD).mkv1.15 GB
Impulse S01E05 WEBRip 720p (OMSKBIRD).mkv1.12 GB
Impulse S01E06 WEBRip 720p (OMSKBIRD).mkv1.12 GB
Impulse S01E07 WEBRip 720p (OMSKBIRD).mkv1.05 GB
Impulse S01E08 WEBRip 720p (OMSKBIRD).mkv1.04 GB
Impulse S01E09 WEBRip 720p (OMSKBIRD).mkv1,011.10 MB
Impulse S01E10 WEBRip 720p (OMSKBIRD).mkv1.14 GB

Текущая раздача:
ДатаКомментарии    РазмерПиры
2018-06-11 U Импульс / Impulse [S01] (2018) WEBRip 720p | OMSKBIRD 10.78 GB ↑ 87 ↓ 81

Показать еще раздачи по запросу импульс:
2018-06-12 U Импульс / Impulse [S01] (2018) WEBRip | IdeaFilm 6.83 GB ↑ 108 ↓ 105
2018-06-11 U Импульс / Impulse [S01] (2018) WEBRip | OMSKBIRD 6.23 GB ↑ 42 ↓ 47
2017-01-08 U Импульс / Urge (2016) BDRip от MegaPeer | iTunes 1.42 GB ↑ 213 ↓ 74
2016-12-12 U Импульс / Urge (2016) BDRip от ExKinoRay | iTunes 1.42 GB ↑ 51 ↓ 35
2016-12-12 U Импульс / Urge (2016) BDRip-AVC от HELLYWOOD | iTunes 1.42 GB ↑ 148 ↓ 13
2016-12-10 U Импульс / Urge (2016) BDRip 720p от ExKinoRay | iTunes 4.77 GB ↑ 1034 ↓ 508
2016-12-10 U Импульс / Urge (2016) HDRip | iTunes 1.37 GB ↑ 809 ↓ 368

Отзывы
Зарегистрируйтесь чтобы добавить комментарий.
Обратная связь
Copyleft ©