↑↓Torrent.by
Поиск
Логин: Регистрация
Пароль: Восстановить пароль
Загрузка...

Конец пути / Journey's End (2017) WEBRip | L2

Скачать konec-puti-journey-s-end-2017-webrip-l2.torrent
U Магнитная ссылка Размер: 1.41 GB Раздают: 109 Качают: 21 Добавлен: 2018-06-11 22:06:11
Конец пути / Journey's End (2017) WEBRip | L2

Название: Конец пути
Оригинальное название: Journey's End
Год выхода: 2017
Жанр: Драма, военный
Режиссер: Сол Дибб
В ролях: Пол Беттани, Сэм Клафлин, Стивен Грэм, Эйса Баттерфилд, Тоби Джонс, Том Старридж, Роберт Гленистер, Майлз Джапп, Тео Барклем-Биггз, Николас Эгнью и другие
О фильме:
История о группе британских офицеров в последнюю весну Первой мировой войны. Молодой и наивный лейтенант Рейли присоединяется на фронте к своему кумиру детства и другу семьи, капитану Стэнхоупу, не подозревая, как тот изменился за годы службы. Их отряд теснится в окопах в ожидании сокрушительной атаки немцев.

Страна: Великобритания, Fluidity Films, British Film Company
Продолжительность: 01:48:14
Перевод: Любительский (двухголосый закадровый) | HiWay Grope

Файл
Кодек: XviD
Качество: WEBRip
Видео: 720x304, 24 fps, ~1469 kbps, 0.28 bit/pixel
Звук:
Аудио rus: AC3, 48 kHz, 6 ch, 384 Kbps
Субтитры: отсутствуют

Реклама: присутствует

Семпл

Релиз от: HiWay Grope


[+] MediaInfo:

General
Complete name                            : E:Journeys.End.2017.WEBRip.HiWayGropeJourneys.End.2017.WEBRip.HiWayGrope.avi
Format                                   : AVI
Format/Info                              : Audio Video Interleave
File size                                : 1.41 GiB
Duration                                 : 1h 48mn
Overall bit rate                         : 1 863 Kbps
Writing application                      : VirtualDubMod 1.5.10.3 (build 2550/release)
Writing library                          : VirtualDubMod build 2550/release

Video
ID                                       : 0
Format                                   : MPEG-4 Visual
Format profile                           : Advanced Simple@L5
Format settings, BVOP                    : 1
Format settings, QPel                    : No
Format settings, GMC                     : No warppoints
Format settings, Matrix                  : Default (MPEG)
Codec ID                                 : XVID
Codec ID/Hint                            : XviD
Duration                                 : 1h 48mn
Bit rate                                 : 1 470 Kbps
Width                                    : 720 pixels
Height                                   : 304 pixels
Display aspect ratio                     : 2.35:1
Frame rate                               : 24.000 fps
Color space                              : YUV
Chroma subsampling                       : 4:2:0
Bit depth                                : 8 bits
Scan type                                : Progressive
Compression mode                         : Lossy
Bits/(Pixel*Frame)                       : 0.280
Stream size                              : 1.11 GiB (79%)
Writing library                          : XviD 73

Audio
ID                                       : 1
Format                                   : AC-3
Format/Info                              : Audio Coding 3
Mode extension                           : CM (complete main)
Format settings, Endianness              : Big
Codec ID                                 : 2000
Duration                                 : 1h 48mn
Bit rate mode                            : Constant
Bit rate                                 : 384 Kbps
Channel(s)                               : 6 channels
Channel positions                        : Front: L C R, Side: L R, LFE
Sampling rate                            : 48.0 KHz
Frame rate                               : 31.250 fps (1536 spf)
Compression mode                         : Lossy
Stream size                              : 297 MiB (21%)
Alignment                                : Split accross interleaves
Interleave, duration                     : 42 ms (1.00 video frame)
Interleave, preload duration             : 500 ms




Скриншоты:
[+] Всего файлов в раздаче - 1:
Journeys.End.2017.WEBRip.HiWayGrope.avi1.41 GB

Текущая раздача:
ДатаКомментарии    РазмерПиры
2018-06-11 U Конец пути / Journey's End (2017) WEBRip | L2 1.41 GB ↑ 109 ↓ 21

Показать еще раздачи по запросу конец:
2018-07-15 U Тебе конец! / You're Next (2013) BDRip 720p от HELLYWOOD | Лицензия 4.42 GB ↑ 57 ↓ 20
2018-05-25 U Диверсант / Диверсант 2. Конец Войны [01-14 из 14] (2004 - 2007) HDTVRip от GeneralFilm 9.57 GB ↑ 137 ↓ 76
2018-02-21 U Конец ствола / End of a Gun (2016) HDRip | iTunes 1К700.64 MB ↑ 48 ↓ 20
2018-02-18 U Конец апреля / The End of April (2017) WEBRip 720p | L2 1К1.93 GB ↑ 113 ↓ 50
2018-02-18 U Конец фильма - Конец фильма [Сборник] (2018) MP3 169.19 MB ↑ 115 ↓ 27
2018-01-26 U Конец ***го мира / The End Of The F***ing World [S01] (2017) WEBRip 1080p | NewStudio 6.56 GB ↑ 87 ↓ 26
2018-01-23 U Королевский квест 3: Конец рассвета / Queen's Quest 3: The End of Dawn (2017) PC | Лицензия 1.13 GB ↑ 441 ↓ 33

Отзывы
Зарегистрируйтесь чтобы добавить комментарий.
Обратная связь
Copyleft ©