↑↓Torrent.by
Поиск
Логин: Регистрация
Пароль: Восстановить пароль
Загрузка...

Когда мы познакомились / When We First Met (2018) WEBRip | Jaskier

Скачать kogda-my-poznakomilis-when-we-first-met-2018-webrip-jaskier.torrent
U Магнитная ссылка Размер: 1.36 GB Раздают: 77 Качают: 40 Добавлен: 2018-06-12 08:32:45
Когда мы познакомились / When We First Met (2018) WEBRip | Jaskier

Название: Когда мы познакомились
Оригинальное название: When We First Met
Год выхода: 2018
Жанр: Комедия
Режиссер: Эри Сандел
В ролях: Александра Даддарио, Робби Амелл, Адам Дивайн, Норин ДеВулф, Шелли Хенниг, Эндрю Бэчелор, Тони Кавалеро, Тени Интриаго, Крис Уайлд, Дин Уэст и другие

О фильме:
Парню по имени Ной посчастливилось встретить идеальную девушку и провести с ней идеальную ночь. Но после этого на него был повешен ярлык «просто друг», и лишь спустя долгих три года Ною выпадает шанс разобраться, в чём он оплошал. Отправившись в прошлое, Ной снова и снова переживает незабываемое свидание в надежде на другой финал.

Страна: США, Footprint Features, Long Road Film, MXN Entertainment
Продолжительность: 01:37:02
Перевод: Профессиональный (многоголосый, закадровый) Jaskier

Файл
Формат: AVI
Качество: WEBRip
Видео: XviD, 720x400, 23.976 fps, 1614 kbps
Звук: AC3, 6 ch, 384 kbps
Субтитры: отсутствуют

***Примечание: Без рекламы.

Релиз от: JASKiER


[+] MI


Общее
Полное имя                               : D:ЯскъерWhen.We.First.Met.2018.NF.WEBRip.Jaskier.avi
Формат                                   : AVI
Формат/Информация                        : Audio Video Interleave
Размер файла                             : 1,36 Гбайт
Продолжительность                        : 1 ч. 37 м.
Общий поток                              : 2007 Кбит/сек
Программа кодирования                    : VirtualDubMod 1.5.10.3 | www.virtualdub-fr.org || (build 2550/release)
Библиотека кодирования                   : VirtualDubMod build 2550/release

Видео
Идентификатор                            : 0
Формат                                   : MPEG-4 Visual
Профиль формата                          : Advanced Simple@L5
Настройки формата                        : BVOP2 / Custom Matrix
Параметр BVOP формата                    : 2
Параметр QPel формата                    : Нет
Параметр GMC формата                     : Без точки перехода
Параметр матрицы формата                 : Выборочная
Идентификатор кодека                     : XVID
Идентификатор кодека/Подсказка           : XviD
Продолжительность                        : 1 ч. 37 м.
Битрейт                                  : 1614 Кбит/сек
Ширина                                   : 720 пикселей
Высота                                   : 400 пикселей
Соотношение сторон                       : 16:9
Частота кадров                           : 23,976 (24000/1001) кадра/сек
Цветовое пространство                    : YUV
Субдискретизация насыщенности            : 4:2:0
Битовая глубина                          : 8 бит
Тип развёртки                            : Прогрессивная
Метод сжатия                             : С потерями
Бит/(Пиксели*Кадры)                      : 0.234
Размер потока                            : 1,09 Гбайт (80%)
Библиотека кодирования                   : XviD 73

Аудио
Идентификатор                            : 1
Формат                                   : AC-3
Формат/Информация                        : Audio Coding 3
Идентификатор кодека                     : 2000
Продолжительность                        : 1 ч. 37 м.
Вид битрейта                             : Постоянный
Битрейт                                  : 384 Кбит/сек
Каналы                                   : 6 каналов
Расположение каналов                     : Front: L C R, Side: L R, LFE
Частота                                  : 48,0 КГц
Частота кадров                           : 31,250 кадров/сек (1536 SPF)
Битовая глубина                          : 16 бит
Метод сжатия                             : С потерями
Размер потока                            : 267 Мбайт (19%)
Выравнивание                             : Разделение по промежуткам
Продолжительность промежутка             : 42  мс. (1,00 видеокадр)
Время предзагрузки промежутка            : 500  мс.




Скриншоты:
[+] Всего файлов в раздаче - 1:
When.We.First.Met.2018.NF.WEBRip.Jaskier.avi1.36 GB

Текущая раздача:
ДатаКомментарии    РазмерПиры
2018-06-12 U Когда мы познакомились / When We First Met (2018) WEBRip | Jaskier 1.36 GB ↑ 77 ↓ 40

Показать еще раздачи по запросу когда:
2018-06-18 U Что? Где? Когда? Летняя серия игр [01-04 из 05] (2018) HDTVRip от GeneralFilm 3.16 GB ↑ 40 ↓ 197
2018-06-15 U Когда кончилось время / When Time Ran Out... (1980) DVDRip | P2, A 1.59 GB ↑ 30 ↓ 16
2018-06-15 U Когда мы познакомились / When We First Met (2018) WEBRip от ExKinoRay | P | Jaskier 745.48 MB ↑ 31 ↓ 9
2018-06-12 U Когда мы познакомились / When We First Met (2018) WEBRip 720p | Jaskier 2.46 GB ↑ 72 ↓ 31
2018-06-12 U Когда мы познакомились / When We First Met (2018) WEBRip 1080p | Jaskier 4.02 GB ↑ 35 ↓ 25
2018-06-11 U Что? Где? Когда? Летняя серия игр [01-03 из 05] (2018) HDTVRip от GeneralFilm 2.38 GB ↑ 153 ↓ 252
2018-06-04 U Что? Где? Когда? Летняя серия игр [01-02 из 05] (2018) HDTV 1080i от GeneralFilm 6.40 GB ↑ 29 ↓ 47

Отзывы
Зарегистрируйтесь чтобы добавить комментарий.
Обратная связь
Copyleft ©