↑↓Torrent.by
Поиск
Логин: Регистрация
Пароль: Восстановить пароль
Загрузка...

Переправа / The Crossing [S01] (2018) WEB-DLRip | OMSKBIRD

Скачать pereprava-the-crossing-s01-2018-web-dlrip-omskbird.torrent
U Магнитная ссылка Размер: 6.51 GB Раздают: 22 Качают: 58 Добавлен: 2018-06-12 08:33:58
Переправа / The Crossing [S01] (2018) WEB-DLRip | OMSKBIRD

Название: Переправа
Оригинальное название: The Crossing
Год выхода: 2018
Жанр: фантастика, драма
Режиссер: Роб Боумен, Кен Джиротти, Джеффри Дж. Хант
В ролях: Стив Зан, Кристиан Майкл Купер, Райан МакДонелл, Сандрин Холт, Рик Гомес, Грант Уитни Харви, Келли Миссал, Симона Кэссел и др.

О фильме:
Волны выбрасывают на промозглый орегонский пляж тела непонятно откуда взявшихся беженцев. Все они прибыли из будущего, в котором сейчас вовсю разворачивается очередная мировая война. В том, чем грозит нашествие, пытается разобраться местный шериф.

 
Страна: США
Продолжительность: ~ 44 мин. серия
Перевод: Любительский (многоголосый закадровый) | OMSKBIRD

Файл
Кодек: Xvid
Качество: WEB-DLRip
Видео: AVI, 720x400 (16:9), 23.976 fps, ~ 1800 kbps
Звук: Аудио rus: AC-3, 48 KHz, 2 ch, 192 kbps | OMSKBIRD records

Семпл

Присутствует реклама!


[+] Mediainfo:

General
Complete name               : H:Мои ДокументыВидеоРАЗДАЧИПЕРЕПРАВАThe Crossing S01 WEB-DLRip (OMSKBIRD)The Crossing S01E01 WEB-DLRip (OMSKBIRD).avi
Format                      : AVI
Format/Info                 : Audio Video Interleave
File size                   : 614 MiB
Duration                    : 43 min 21 s
Overall bit rate            : 1 979 kb/s
Writing application         : VirtualDubMod 1.5.10.3 | www.virtualdub-fr.org || (build 2550/release)
Writing library             : VirtualDubMod build 2550/release

Video
ID                          : 0
Format                      : MPEG-4 Visual
Format profile              : Advanced Simple@L5
Format settings, BVOP       : 1
Format settings, QPel       : No
Format settings, GMC        : No warppoints
Format settings, Matrix     : Default (H.263)
Codec ID                    : XVID
Codec ID/Hint               : XviD
Duration                    : 43 min 21 s
Bit rate                    : 1 777 kb/s
Width                       : 720 pixels
Height                      : 400 pixels
Display aspect ratio        : 16:9
Frame rate                  : 23.976 (24000/1001) FPS
Color space                 : YUV
Chroma subsampling          : 4:2:0
Bit depth                   : 8 bits
Scan type                   : Progressive
Compression mode            : Lossy
Bits/(Pixel*Frame)          : 0.257
Stream size                 : 551 MiB (90%)
Writing library             : XviD 67

Audio
ID                          : 1
Format                      : AC-3
Format/Info                 : Audio Coding 3
Format settings, Endianness : Big
Codec ID                    : 2000
Duration                    : 43 min 21 s
Bit rate mode               : Constant
Bit rate                    : 192 kb/s
Channel(s)                  : 2 channels
Channel positions           : Front: L R
Sampling rate               : 48.0 kHz
Frame rate                  : 31.250 FPS (1536 SPF)
Bit depth                   : 16 bits
Compression mode            : Lossy
Stream size                 : 59.5 MiB (10%)
Alignment                   : Split accross interleaves
Interleave, duration        : 42  ms (1.00 video frame)
Interleave, preload duratio : 500  ms
Service kind                : Complete Main




Скриншоты:
[+] Всего файлов в раздаче - 11:
The Crossing S01E01 WEB-DLRip (OMSKBIRD).avi613.60 MB
The Crossing S01E02 WEB-DLRip (OMSKBIRD).avi605.93 MB
The Crossing S01E03 WEB-DLRip (OMSKBIRD).avi602.24 MB
The Crossing S01E04 WEB-DLRip (OMSKBIRD).avi611.04 MB
The Crossing S01E05 WEB-DLRip (OMSKBIRD).avi594.69 MB
The Crossing S01E06 WEB-DLRip (OMSKBIRD).avi605.08 MB
The Crossing S01E07 WEB-DLRip (OMSKBIRD).avi616.25 MB
The Crossing S01E08 WEB-DLRip (OMSKBIRD).avi595.07 MB
The Crossing S01E09 WEB-DLRip (OMSKBIRD).avi607.29 MB
The Crossing S01E10 WEB-DLRip (OMSKBIRD).avi608.35 MB
The Crossing S01E11 WEB-DLRip (OMSKBIRD).avi602.58 MB

Текущая раздача:
ДатаКомментарии    РазмерПиры
2018-06-12 U Переправа / The Crossing [S01] (2018) WEB-DLRip | OMSKBIRD 6.51 GB ↑ 22 ↓ 58

Показать еще раздачи по запросу переправа:
2018-06-14 U Переправа / The Crossing [S01] (2018) WEB-DLRip | LostFilm 5.74 GB ↑ 99 ↓ 102
2018-06-12 U Переправа / The Crossing [01х01-10 из 11] (2018) WEB-DLRip | LostFilm 5.22 GB ↑ 31 ↓ 99
2018-05-03 U Переправа / The Crossing [01х01-05 из 11] (2018) WEB-DLRip | LostFilm 2.61 GB ↑ 85 ↓ 68
2018-03-27 U Переправа / The Crossing [01х01 из 11] (2018) WEB-DLRip | LostFilm 541.69 MB ↑ 36 ↓ 6
2018-03-20 U Переправа / The Crossing [01x01 из 11] (2018) WEB-DLRip | ColdFilm 1К461.21 MB ↑ 35 ↓ 8
2017-03-06 U Переправа / Fuglene over sundet (2016) HDRip | L 1.37 GB ↑ 66 ↓ 13
2015-12-24 U Переправа 2 / The Crossing 2 (2015) HDRip от Scarabey | iTunes 1.45 GB ↑ 1143 ↓ 50

Отзывы
Зарегистрируйтесь чтобы добавить комментарий.
Обратная связь
Copyleft ©