↑↓Torrent.by
Поиск
Логин: Регистрация
Пароль: Восстановить пароль
Загрузка...

Великолепная семерка / The Magnificent Seven (2016) BDRip 720p от NNNB | 60 fps | Лицензия

Скачать velikolepnaya-semerka-the-magnificent-seven-2016-bdrip-720p-ot-nnnb-60-fps-licenziya.torrent
U Магнитная ссылка Размер: 6.98 GB Раздают: 30 Качают: 10 Добавлен: 2018-06-12 08:34:11
Великолепная семерка / The Magnificent Seven (2016) BDRip 720p от NNNB | 60 fps | Лицензия

Информация о фильме
Русское название: Великолепная семерка
Оригинальное название: The Magnificent Seven
Год выхода: 2016
Жанр:  боевик, приключения, вестерн
Режиссер: Антуан Фукуа
Выпущено: США
Продолжительность: 02:12:49
Перевод: Дублированный
В ролях: Дензел Вашингтон, Крис Пратт, Итан Хоук, Винсент Д’Онофрио, Ли Бён-хон, Мануэль Рульфо, Мартин Сенсмейер, Хейли Беннетт, Питер Сарсгаард, Люк Граймс

Описание:
Семеро отважных искателей приключений встают на защиту жителей маленького городка, угнетаемого бандой грабителей.

Файл
Качество: BDRip 720p (исходник Blu-ray Disc Remux)
Контейнер: MKV (расширение файла)
Видео: 1280x534, 6500 Кбит/сек, 60.000 кадр/сек, AVC, x264, High@L4.1, 2.40:1, 0.158 Бит/[Пиксели*Кадры]
Аудио 1: AC-3, 384 Кбит/сек, 6 канала(ов), 48,0 КГц - Дублированный / Русский
Аудио 2: AC-3, 640 Кбит/сек, 6 канала(ов), 48,0 КГц - Оригинал / Английский
Субтитры: Русские | Полные, Английские | Полные
Форсированные субтитры: Русские
Чаптеры (Главы): Есть

Релиз:  Сообщество:

^Прежде чем отписывать комментарии по качеству, прочитайте спойлер!


[+] MediaInfo
Format                      : Matroska
Format version              : Version 2
File size                   : 6.98 GiB
Duration                    : 2 h 12 min
Overall bit rate            : 7 527 kb/s
Movie name                  : The Magnificent Seven.(2016).BDRip.720p.[envy].[60fps]
Encoded date                : UTC 2018-06-10 17:17:58
Writing application         : mkvmerge v5.8.0 ('No Sleep / Pillow') built on Sep  2 2012 15:37:04
Writing library             : libebml v1.2.3 + libmatroska v1.3.0

Video
ID                          : 1
Format                      : AVC
Format/Info                 : Advanced Video Codec
Format profile              : High@L4.1
Format settings             : CABAC / 9 Ref Frames
Format settings, CABAC      : Yes
Format settings, ReFrames   : 9 frames
Codec ID                    : V_MPEG4/ISO/AVC
Duration                    : 2 h 12 min
Bit rate                    : 6 500 kb/s
Width                       : 1 280 pixels
Height                      : 534 pixels
Display aspect ratio        : 2.40:1
Frame rate mode             : Constant
Frame rate                  : 60.000 FPS
Color space                 : YUV
Chroma subsampling          : 4:2:0
Bit depth                   : 8 bits
Scan type                   : Progressive
Bits/(Pixel*Frame)          : 0.158
Stream size                 : 5.89 GiB (84%)
Title                       : The Magnificent Seven.(2016).BDRip.720p.[envy].[60fps]
Writing library             : x264 core 146 r2538 121396c
Encoding settings           : cabac=1 / ref=9 / deblock=1:-3:-3 / analyse=0x3:0x113 / me=umh / subme=11 / psy=1 / psy_rd=1.00:0.00 / mixed_ref=1 / me_range=32 / chroma_me=1 / trellis=2 / 8x8dct=1 / cqm=0 / deadzone=21,11 / fast_pskip=0 / chroma_qp_offset=-2 / threads=18 / lookahead_threads=4 / sliced_threads=0 / nr=0 / decimate=1 / interlaced=0 / bluray_compat=0 / constrained_intra=0 / bframes=11 / b_pyramid=2 / b_adapt=2 / b_bias=0 / direct=3 / weightb=1 / open_gop=0 / weightp=2 / keyint=250 / keyint_min=25 / scenecut=40 / intra_refresh=0 / rc=2pass / mbtree=0 / bitrate=6500 / ratetol=1.0 / qcomp=0.60 / qpmin=0 / qpmax=69 / qpstep=4 / cplxblur=20.0 / qblur=0.5 / ip_ratio=1.40 / pb_ratio=1.30 / aq=3:1.00
Language                    : English
Default                     : Yes
Forced                      : No

Audio #1
ID                          : 2
Format                      : AC-3
Format/Info                 : Audio Coding 3
Codec ID                    : A_AC3
Duration                    : 2 h 12 min
Bit rate mode               : Constant
Bit rate                    : 384 kb/s
Channel(s)                  : 6 channels
Channel positions           : Front: L C R, Side: L R, LFE
Sampling rate               : 48.0 kHz
Frame rate                  : 31.250 FPS (1536 SPF)
Bit depth                   : 16 bits
Compression mode            : Lossy
Stream size                 : 365 MiB (5%)
Title                       : Dub
Language                    : Russian
Service kind                : Complete Main
Default                     : Yes
Forced                      : No

Audio #2
ID                          : 3
Format                      : AC-3
Format/Info                 : Audio Coding 3
Codec ID                    : A_AC3
Duration                    : 2 h 12 min
Bit rate mode               : Constant
Bit rate                    : 640 kb/s
Channel(s)                  : 6 channels
Channel positions           : Front: L C R, Side: L R, LFE
Sampling rate               : 48.0 kHz
Frame rate                  : 31.250 FPS (1536 SPF)
Bit depth                   : 16 bits
Compression mode            : Lossy
Stream size                 : 608 MiB (9%)
Title                       : Eng
Language                    : English
Service kind                : Complete Main
Default                     : No
Forced                      : No

Text #1
ID                          : 4
Format                      : UTF-8
Codec ID                    : S_TEXT/UTF8
Codec ID/Info               : UTF-8 Plain Text
Title                       : Rus forced
Language                    : Russian
Default                     : Yes
Forced                      : Yes

Text #2
ID                          : 5
Format                      : UTF-8
Codec ID                    : S_TEXT/UTF8
Codec ID/Info               : UTF-8 Plain Text
Title                       : Rus full
Language                    : Russian
Default                     : No
Forced                      : No

Text #3
ID                          : 6
Format                      : UTF-8
Codec ID                    : S_TEXT/UTF8
Codec ID/Info               : UTF-8 Plain Text
Title                       : Eng full
Language                    : English
Default                     : No
Forced                      : No

Menu
00:00:00.000                : en:01. Main Titles
00:04:53.710                : en:02. The Raid
00:11:28.187                : en:03. Shotgun on a Hearse
00:18:12.591                : en:04. The Magnificent Two
00:25:17.849                : en:05. The Gang Takes Shape
00:31:55.955                : en:06. Go South, Young Men
00:36:53.794                : en:07. Spies at the Fiesta
00:42:05.856                : en:08. Readying for Battle
00:50:23.520                : en:09. The First Fight
00:59:57.844                : en:10. That Dying Feeling
01:06:49.630                : en:11. In the Enemy Camp
01:16:08.438                : en:12. An Argument for Fear
01:23:25.792                : en:13. "Buenas Noches!"
01:34:06.766                : en:14. Going Back?
01:44:19.711                : en:15. The Last Fight
01:54:47.296                : en:16. Moving On / End Credits



[+] ВАЖНО! Читать в первую очередь перед скачиванием!!!

Прежде чем скачивать фильм полностью, скачайте "сэмпл", и проверьте будет ли воспроизводится видео на вашем устройстве!

Q: Присутствуют ли артефакты на изображении?
A: Да, есть, и будут, какие настройки скритпа не вписывай они будут постоянно! Так как это дорисованные кадры из исходных + Видео ряд обработан фильтром "Sharp"

Q: У меня не запускается видео на компьютере?
A: Обновите кодеки. (попробуйте другие видео проигрыватели)

Q: У меня идет рассинхрон звука и видео?
A: Проблема в мощности компьютера. (возможно также нужно обновить кодеки)

Q: Что нужно для воспроизведения данного видео.
A: Что рекомендуется для воспроизведения мной:
Процессор: 4х ядерный
Видео карта: минимум 512Мб. И желательно включить обработку изображения с помощью видео карты. (Деинтерлейсинг, подавление блочности и т.д.)
ОЗУ: 2-4Гб

Проигрыватели.
MPC-HC (Media Player Classic - Home Cinema)
The KMPlayer (Korean Multimedia Player) (оптимальный вариант)
Mirillis Splash PRO (Если что то проигрыватель сам может преобразовывать видео вплоть до частоты кадров монитора. Или тех же 60fps.)



Скриншоты:
[+] Всего файлов в раздаче - 1:
The.Magnificent.Seven.(2016).BDRip.720p.[envy].[60fps].mkv6.98 GB

Текущая раздача:
ДатаКомментарии    РазмерПиры
2018-06-12 U Великолепная семерка / The Magnificent Seven (2016) BDRip 720p от NNNB | 60 fps | Лицензия 6.98 GB ↑ 30 ↓ 10

Показать еще раздачи по запросу великолепная:
2016-12-31 U Великолепная семерка / The Magnificent Seven (2016) BDRip 720p от HELLYWOOD | Лицензия, A, L1 7.96 GB ↑ 391 ↓ 56
2016-12-18 U Великолепная семерка / The Magnificent Seven (2016) BDRip от HQCLUB | D | Лицензия 2.18 GB ↑ 530 ↓ 59
2016-12-17 U Великолепная семерка / The Magnificent Seven (2016) BDRemux 1080p от ExKinoRay | Лицензия 23.21 GB ↑ 307 ↓ 289
2016-12-17 U Великолепная семерка / The Magnificent Seven (2016) BDRip-AVC от HELLYWOOD | Лицензия 2.18 GB ↑ 360 ↓ 105
2016-12-17 U Великолепная семерка / The Magnificent Seven (2016) BDRip 720p от Scarabey | Лицензия 5.20 GB ↑ 458 ↓ 208
2016-12-17 U Великолепная семёрка / The Magnificent Seven (2016) BDRip 720p от k.e.n & nnmclub | Лицензия 4.31 GB ↑ 819 ↓ 99
2016-12-17 U Великолепная семерка / The Magnificent Seven (2016) HDRip от Scarabey | Лицензия 1.45 GB ↑ 1571 ↓ 220

Отзывы
Зарегистрируйтесь чтобы добавить комментарий.
Обратная связь
Copyleft ©