↑↓Torrent.by
Поиск
Логин: Регистрация
Пароль: Восстановить пароль
Загрузка...

Вечеринка / The Party (2017) BDRip 1080p | Jaskier

Скачать vecherinka-the-party-2017-bdrip-1080p-jaskier.torrent
U Магнитная ссылка Размер: 6.78 GB Раздают: 41 Качают: 31 Добавлен: 2018-06-12 11:30:48
Вечеринка / The Party (2017) BDRip 1080p | Jaskier

Название: Вечеринка
Оригинальное название: The Party
Год выхода: 2017
Жанр: драма, комедия
Режиссер: Салли Поттер
В ролях: Патришия Кларксон, Бруно Ганц, Черри Джонс, Эмили Мортимер, Киллиан Мёрфи, Кристин Скотт Томас, Тимоти Сполл

О фильме:
Дома у Билла и Джэнет собираются старые друзья — посидеть, выпить вина, поделиться новостями, тем более, что в жизни всех участников встречи происходит что-то интересное. Вечер удался бы на славу, но тут Билл сделал такое заявление, что настроение у всех резко испортилось. Теперь старые друзья уже готовы вцепиться друг другу в глотку, как в переносном, так и во вполне прямом смысле.

Страна: Великобритания
Студия: Adventure Pictures, Oxwich Media
Продолжительность: 01:10:42
Перевод: Профессиональный (многоголосый, закадровый) Jaskier

Файл
Формат: MKV
Качество: BDRip 1080p | EA
Видео: MPEG-4 AVC,  12200 kb/s, 1920x808
Аудио: Russian: / English: AC3, 640 kb/s (6 ch)
Субтитры: английские (full)

***Примечание: Без рекламы.

Релиз от: JASKiER


[+] MI

Общее
Уникальный идентификатор                 : 179433483343298753399561604027794246309 (0x86FDA1C18DF159DCA9DE90320096CAA5)
Полное имя                               : F:ЗагрузкиThe.Party.2017.BDRip.1080p.Jaskier.mkv
Формат                                   : Matroska
Версия формата                           : Version 2
Размер файла                             : 6,78 Гбайт
Продолжительность                        : 1 ч. 10 м.
Общий поток                              : 13,7 Мбит/сек
Дата кодирования                         : UTC 2018-06-12 01:54:13
Программа кодирования                    : mkvmerge v7.8.0 ('River Man') 32bit built on Apr  3 2015 12:11:22
Библиотека кодирования                   : libebml v1.3.1 + libmatroska v1.4.2

Видео
Идентификатор                            : 1
Формат                                   : AVC
Формат/Информация                        : Advanced Video Codec
Профиль формата                          : High@L4.1
Настройки формата                        : CABAC / 5 Ref Frames
Параметр CABAC формата                   : Да
Параметр RefFrames формата               : 5 кадров
Идентификатор кодека                     : V_MPEG4/ISO/AVC
Продолжительность                        : 1 ч. 10 м.
Битрейт                                  : 12,2 Мбит/сек
Ширина                                   : 1920 пикселей
Высота                                   : 808 пикселей
Соотношение сторон                       : 2,40:1
Режим частоты кадров                     : Постоянный
Частота кадров                           : 24,000 кадра/сек
Цветовое пространство                    : YUV
Субдискретизация насыщенности            : 4:2:0
Битовая глубина                          : 8 бит
Тип развёртки                            : Прогрессивная
Бит/(Пиксели*Кадры)                      : 0.327
Размер потока                            : 6,01 Гбайт (89%)
Заголовок                                : -EA
Библиотека кодирования                   : x264 core 152 r2851+58 429492e t_mod_Custom [8-bit@all X86_64]
Настройки программы                      : cabac=1 / ref=5 / deblock=1:-3:-3 / analyse=0x3:0x113 / me=umh / subme=10 / psy=1 / fade_compensate=0.00 / psy_rd=1.02:0.00 / mixed_ref=1 / me_range=32 / chroma_me=0 / trellis=2 / 8x8dct=1 / cqm=0 / deadzone=21,11 / fast_pskip=0 / chroma_qp_offset=-2 / threads=24 / lookahead_threads=4 / sliced_threads=0 / nr=0 / decimate=0 / interlaced=0 / bluray_compat=0 / constrained_intra=0 / fgo=0 / bframes=7 / b_pyramid=2 / b_adapt=2 / b_bias=0 / direct=3 / weightb=1 / open_gop=0 / weightp=2 / keyint=240 / keyint_min=24 / scenecut=40 / intra_refresh=0 / rc_lookahead=60 / rc=crf / mbtree=0 / crf=18.8000 / qcomp=0.75 / qpmin=0:0:0 / qpmax=69:69:69 / qpstep=4 / vbv_maxrate=62500 / vbv_bufsize=78125 / crf_max=0.0 / nal_hrd=none / filler=0 / ip_ratio=1.30 / pb_ratio=1.20 / aq=3:0.85 / aq-sensitivity=10.00 / aq-factor=1.00:1.00:1.00 / aq2=1:0.80 / aq2-sensitivity=15.00 / aq2-factor=1.00:1.00:1.00 / aq3=1:[0.80:0.80]:[0.80:0.80]:[0.80:0.80]:[0.80:0.80] / aq3-sensitivity=10.00 / aq3-factor=[1.00:1.00]:[1.00:1.00]:[1.00:1.00] / aq3-boundary=192:64:24
Язык                                     : English
Default                                  : Да
Forced                                   : Нет
Цветовой диапазон                        : Limited
Основные цвета                           : BT.709
Характеристики трансфера                 : BT.709
Коэффициенты матрицы                     : BT.709

Аудио #1
Идентификатор                            : 2
Формат                                   : AC-3
Формат/Информация                        : Audio Coding 3
Идентификатор кодека                     : A_AC3
Продолжительность                        : 1 ч. 10 м.
Вид битрейта                             : Постоянный
Битрейт                                  : 640 Кбит/сек
Каналы                                   : 6 каналов
Расположение каналов                     : Front: L C R, Side: L R, LFE
Частота                                  : 48,0 КГц
Частота кадров                           : 31,250 кадров/сек (1536 SPF)
Битовая глубина                          : 16 бит
Метод сжатия                             : С потерями
Размер потока                            : 324 Мбайт (5%)
Заголовок                                : Jaskier
Язык                                     : Russian
Default                                  : Да
Forced                                   : Нет

Аудио #2
Идентификатор                            : 3
Формат                                   : AC-3
Формат/Информация                        : Audio Coding 3
Идентификатор кодека                     : A_AC3
Продолжительность                        : 1 ч. 10 м.
Вид битрейта                             : Постоянный
Битрейт                                  : 640 Кбит/сек
Каналы                                   : 6 каналов
Расположение каналов                     : Front: L C R, Side: L R, LFE
Частота                                  : 48,0 КГц
Частота кадров                           : 31,250 кадров/сек (1536 SPF)
Битовая глубина                          : 16 бит
Метод сжатия                             : С потерями
Размер потока                            : 324 Мбайт (5%)
Заголовок                                : Original
Язык                                     : English
Default                                  : Нет
Forced                                   : Нет

Текст
Идентификатор                            : 4
Формат                                   : UTF-8
Идентификатор кодека                     : S_TEXT/UTF8
Идентификатор кодека/Информация          : UTF-8 Plain Text
Заголовок                                : Full
Язык                                     : English
Default                                  : Нет
Forced                                   : Нет

Меню
00:00:00.000                             : en:00:00:00.000
00:10:52.417                             : en:00:10:52.417
00:19:38.833                             : en:00:19:38.833
00:30:31.208                             : en:00:30:31.208
00:38:46.625                             : en:00:38:46.625
00:48:28.208                             : en:00:48:28.208
00:56:37.292                             : en:00:56:37.292
01:05:53.625                             : en:01:05:53.625




Скриншоты:
[+] Всего файлов в раздаче - 1:
The.Party.2017.BDRip.1080p.Jaskier.mkv6.78 GB

Текущая раздача:
ДатаКомментарии    РазмерПиры
2018-06-12 U Вечеринка / The Party (2017) BDRip 1080p | Jaskier 6.78 GB ↑ 41 ↓ 31

Показать еще раздачи по запросу вечеринка:
2018-06-12 U Вечеринка / The Party (2017) HDRip | Jaskier 1.36 GB ↑ 38 ↓ 24
2018-06-12 U Вечеринка / The Party (2017) BDRip 720p | Jaskier 3.62 GB ↑ 49 ↓ 41
2018-05-23 U Вечеринка в Вегасе / Bachelor Night (2014) WEBRip 720 | RusFilm 1.38 GB ↑ 68 ↓ 24
2017-12-31 U Сборник - Новогодняя Вечеринка! (2017) MP3 251.28 MB ↑ 148 ↓ 60
2017-11-16 U Вечеринка на яхте / Party Boat (2017) WEBRip 720p | L 1К2.69 GB ↑ 101 ↓ 39
2017-11-16 U Вечеринка на яхте / Party Boat (2017) WEBRip | L 1.37 GB ↑ 246 ↓ 83
2017-10-19 U Хеллоуинские истории: Вечеринка Коллекционное издание (2017) PC 937.26 MB ↑ 68 ↓ 22

Отзывы
Зарегистрируйтесь чтобы добавить комментарий.
Обратная связь
Copyleft ©