↑↓Torrent.by
Поиск
Логин: Регистрация
Пароль: Восстановить пароль
Загрузка...

Вечеринка / The Party (2017) HDRip | Jaskier

Скачать vecherinka-the-party-2017-hdrip-jaskier.torrent
U Магнитная ссылка Размер: 1.36 GB Раздают: 39 Качают: 26 Добавлен: 2018-06-12 11:31:04
Вечеринка / The Party (2017) HDRip | Jaskier

Название: Вечеринка
Оригинальное название: The Party
Год выхода: 2017
Жанр: драма, комедия
Режиссер: Салли Поттер
В ролях: Патришия Кларксон, Бруно Ганц, Черри Джонс, Эмили Мортимер, Киллиан Мёрфи, Кристин Скотт Томас, Тимоти Сполл

О фильме:
Дома у Билла и Джэнет собираются старые друзья — посидеть, выпить вина, поделиться новостями, тем более, что в жизни всех участников встречи происходит что-то интересное. Вечер удался бы на славу, но тут Билл сделал такое заявление, что настроение у всех резко испортилось. Теперь старые друзья уже готовы вцепиться друг другу в глотку, как в переносном, так и во вполне прямом смысле.

Страна: Великобритания
Студия: Adventure Pictures, Oxwich Media
Продолжительность: 01:10:42
Перевод: Профессиональный (многоголосый, закадровый) Jaskier

Файл
Качество: HDRip
Формат: AVI
Видео: 2299 kbps, 720x304 (2,35:1), 24 fps
Aудио: Russian: 48 kHz, AC3, 3/2 (L,C,R,l,r) + LFE ch, ~448 kbps avg
Субтитры: None

***Примечание: Без рекламы.

Релиз от: JASKiER


[+] MI


Общее
Полное имя                               : D:ЯскъерThe.Party.2017.HDRip.Jaskier.avi
Формат                                   : AVI
Формат/Информация                        : Audio Video Interleave
Размер файла                             : 1,36 Гбайт
Продолжительность                        : 1 ч. 10 м.
Общий поток                              : 2757 Кбит/сек
Программа кодирования                    : VirtualDubMod 1.5.10.3 | www.virtualdub-fr.org || (build 2550/release)
Библиотека кодирования                   : VirtualDubMod build 2550/release

Видео
Идентификатор                            : 0
Формат                                   : MPEG-4 Visual
Профиль формата                          : Advanced Simple@L5
Настройки формата                        : BVOP2 / Custom Matrix
Параметр BVOP формата                    : 2
Параметр QPel формата                    : Нет
Параметр GMC формата                     : Без точки перехода
Параметр матрицы формата                 : Выборочная
Идентификатор кодека                     : XVID
Идентификатор кодека/Подсказка           : XviD
Продолжительность                        : 1 ч. 10 м.
Битрейт                                  : 2299 Кбит/сек
Ширина                                   : 720 пикселей
Высота                                   : 304 пикселя
Соотношение сторон                       : 2,35:1
Частота кадров                           : 24,000 кадра/сек
Цветовое пространство                    : YUV
Субдискретизация насыщенности            : 4:2:0
Битовая глубина                          : 8 бит
Тип развёртки                            : Прогрессивная
Метод сжатия                             : С потерями
Бит/(Пиксели*Кадры)                      : 0.438
Размер потока                            : 1,14 Гбайт (83%)
Библиотека кодирования                   : XviD 73

Аудио
Идентификатор                            : 1
Формат                                   : AC-3
Формат/Информация                        : Audio Coding 3
Идентификатор кодека                     : 2000
Продолжительность                        : 1 ч. 10 м.
Вид битрейта                             : Постоянный
Битрейт                                  : 448 Кбит/сек
Каналы                                   : 6 каналов
Расположение каналов                     : Front: L C R, Side: L R, LFE
Частота                                  : 48,0 КГц
Частота кадров                           : 31,250 кадров/сек (1536 SPF)
Битовая глубина                          : 16 бит
Метод сжатия                             : С потерями
Размер потока                            : 227 Мбайт (16%)
Выравнивание                             : Разделение по промежуткам
Продолжительность промежутка             : 42  мс. (1,00 видеокадр)
Время предзагрузки промежутка            : 500  мс.




Скриншоты:
[+] Всего файлов в раздаче - 1:
The.Party.2017.HDRip.Jaskier.avi1.36 GB

Текущая раздача:
ДатаКомментарии    РазмерПиры
2018-06-12 U Вечеринка / The Party (2017) HDRip | Jaskier 1.36 GB ↑ 39 ↓ 26

Показать еще раздачи по запросу вечеринка:
2018-06-12 U Вечеринка / The Party (2017) BDRip 1080p | Jaskier 6.78 GB ↑ 43 ↓ 32
2018-06-12 U Вечеринка / The Party (2017) BDRip 720p | Jaskier 3.62 GB ↑ 50 ↓ 42
2018-05-23 U Вечеринка в Вегасе / Bachelor Night (2014) WEBRip 720 | RusFilm 1.38 GB ↑ 68 ↓ 24
2017-12-31 U Сборник - Новогодняя Вечеринка! (2017) MP3 251.28 MB ↑ 148 ↓ 60
2017-11-16 U Вечеринка на яхте / Party Boat (2017) WEBRip 720p | L 1К2.69 GB ↑ 101 ↓ 39
2017-11-16 U Вечеринка на яхте / Party Boat (2017) WEBRip | L 1.37 GB ↑ 249 ↓ 83
2017-10-19 U Хеллоуинские истории: Вечеринка Коллекционное издание (2017) PC 937.26 MB ↑ 68 ↓ 22

Отзывы
Зарегистрируйтесь чтобы добавить комментарий.
Обратная связь
Copyleft ©