↑↓Torrent.by
Поиск
Логин: Регистрация
Пароль: Восстановить пароль
Загрузка...

Рейс 666 / Flight 666 (2018) WEBRip | L2

Скачать reys-666-flight-2018-webrip-l2.torrent
U Магнитная ссылка Размер: 1.37 GB Раздают: 176 Качают: 79 Добавлен: 2018-06-12 14:59:39
Рейс 666 / Flight 666 (2018) WEBRip | L2

Название: Рейс 666
Оригинальное название: Flight 666
Год выхода: 2018
Жанр: Ужасы
Режиссер: Роб Палатин
В ролях: Рене Уиллетт, Пол Логан, Лиз Феннинг, Хосе Розете, Джозеф Майкл Харрис, Джесси Джеймс Д'Анджело, Джастин Хоффмайстер, Кларисса Тибо, Брендан Петриццо, Грег Фурман, Шамар Филипп, Элизабет Хардинг, Сет Ракос, Мэтью Рили, Шарон Дезире и другие
О фильме:
Пассажиров и экипаж самолета терроризируют потусторонние силы, которые угрожают жизни всех на борту. В борьбе за свою жизнь люди понимают, что это дело рук призраков, которые хотят отомстить своему убийце, но тот сделает все, чтобы остаться в живых.

Страна: США, Asylum
Продолжительность: 01:29:41
Перевод: Любительский (двухголосый закадровый) | HiWay Grope

Файл
Кодек: XviD
Качество: WEBRip
Видео: 720x400, 23.976 fps, ~1796 kbps, 0.26 bit/pixel
Звук:
Аудио rus: AC3, 48 kHz, 6 ch, 384 Kbps
Субтитры: отсутствуют

Реклама: присутствует

Семпл

Релиз от: HiWay Grope


[+] MediaInfo:

General
Complete name                            : E:Flight 666.2018.WEBRip.HiWayGropeFlight 666.2018.WEBRip.HiWayGrope.avi
Format                                   : AVI
Format/Info                              : Audio Video Interleave
File size                                : 1.37 GiB
Duration                                 : 1h 29mn
Overall bit rate                         : 2 190 Kbps
Writing application                      : VirtualDubMod 1.5.10.3 (build 2550/release)
Writing library                          : VirtualDubMod build 2550/release

Video
ID                                       : 0
Format                                   : MPEG-4 Visual
Format profile                           : Advanced Simple@L5
Format settings, BVOP                    : 1
Format settings, QPel                    : No
Format settings, GMC                     : No warppoints
Format settings, Matrix                  : Default (MPEG)
Codec ID                                 : XVID
Codec ID/Hint                            : XviD
Duration                                 : 1h 29mn
Bit rate                                 : 1 796 Kbps
Width                                    : 720 pixels
Height                                   : 400 pixels
Display aspect ratio                     : 16:9
Frame rate                               : 23.976 (23976/1000) fps
Color space                              : YUV
Chroma subsampling                       : 4:2:0
Bit depth                                : 8 bits
Scan type                                : Progressive
Compression mode                         : Lossy
Bits/(Pixel*Frame)                       : 0.260
Stream size                              : 1.13 GiB (82%)
Writing library                          : XviD 73

Audio
ID                                       : 1
Format                                   : AC-3
Format/Info                              : Audio Coding 3
Mode extension                           : CM (complete main)
Format settings, Endianness              : Big
Codec ID                                 : 2000
Duration                                 : 1h 29mn
Bit rate mode                            : Constant
Bit rate                                 : 384 Kbps
Channel(s)                               : 6 channels
Channel positions                        : Front: L C R, Side: L R, LFE
Sampling rate                            : 48.0 KHz
Frame rate                               : 31.250 fps (1536 spf)
Compression mode                         : Lossy
Stream size                              : 246 MiB (18%)
Alignment                                : Split accross interleaves
Interleave, duration                     : 42 ms (1.00 video frame)
Interleave, preload duration             : 500 ms




Скриншоты:
[+] Всего файлов в раздаче - 1:
Flight 666.2018.WEBRip.HiWayGrope.avi1.37 GB

Текущая раздача:
ДатаКомментарии    РазмерПиры
2018-06-12 U Рейс 666 / Flight 666 (2018) WEBRip | L2 1.37 GB ↑ 176 ↓ 79

Показать еще раздачи по запросу рейс:
2018-06-12 U Рейс 666 / Flight 666 (2018) WEBRip 720p | L2 2.24 GB ↑ 116 ↓ 51
2018-05-19 U Шофёр на один рейс (1981) HDTVRip-AVC от KORSAR 3.87 GB ↑ 70 ↓ 17
2016-11-17 U Рейс 1942 / Flight World War II (2015) BDRip 1080p | L1 8.21 GB ↑ 169 ↓ 61
2016-11-16 U Рейс 1942 / Flight World War II (2015) HDRip | L1 938.85 MB ↑ 725 ↓ 82
2016-04-07 U Очередной рейс (1958) DVDRip от Кинорадиомагия 1.37 GB ↑ 42 ↓ 13
2016-02-14 U Следствие вели... с Леонидом Каневским. Экипаж. Рейс на тот свет [Эфир от 13.02] (2016) HDTVRip от GeneralFilm 563.88 MB ↑ 246 ↓ 5
2015-12-30 U Новогодний рейс [01-04 из 04] (2015) HDTVRip от GeneralFilm 2.82 GB ↑ 1744 ↓ 1

Отзывы
Зарегистрируйтесь чтобы добавить комментарий.
Обратная связь
Copyleft ©