↑↓Torrent.by
Поиск
Логин: Регистрация
Пароль: Восстановить пароль
Загрузка...

Код 211 / 211 (2018) WEB-DL 1080p | L

Скачать kod-211-2018-web-dl-1080p-l.torrent
U Магнитная ссылка Размер: 3.51 GB Раздают: 125 Качают: 71 Добавлен: 2018-06-13 08:46:09
Код 211 / 211 (2018) WEB-DL 1080p | L

Название: Код 211
Оригинальное название: 211
Год выхода: 2018
Жанр: Боевик, драма, история
Режиссер: Йорк Шеклтон
В ролях: Николас Кейдж, Софи Скелтон, Майкл Рейни мл., Дуэйн Камерон, Уэстон Кейдж, Кори Хардрикт, Ори Феффер, Марк Баснайт, Аманда Серни, Майкл Беллисарио

О фильме: Полицейский код 211 — ограбление банка. Такой сигнал получает офицер Чандлер во время своей смены. Он бросается на место событий, чтобы не позволить преступникам сбежать с добычей.

Страна: США
Студия: 211 Productions, Millennium Films, Nu Image Bulgaria
Продолжительность: 01:27:04
Перевод: Любительский, многоголосый, закадровый ~ MUZOBOZ

Файл
Кодек: MPEG-4 AVC
Качество: WEB-DL 1080p
Видео: 1920x1036, 5189kb/s, 23.976fps
Звук:
1] 192kb/s, 2ch, 48000kHz, AC3 [RUS] | MUZOBOZ
2] 384kb/s, 6ch, 48000kHz, AC3 [ENG] | Английский оригинал
Субтитры: Английские

РЕКЛАМА ОТСУТСТВУЕТ


[+] MI

Формат                                   : Matroska
Версия формата                           : Version 4 / Version 2
Размер файла                             : 3,51 Гбайт
Продолжительность                        : 1 ч. 27 м.
Общий поток                              : 5767 Кбит/сек
Дата кодирования                         : UTC 2018-06-09 19:00:08
Программа кодирования                    : mkvmerge v9.2.0 ('Photograph') 64bit
Библиотека кодирования                   : libebml v1.3.3 + libmatroska v1.4.4

Видео
Идентификатор                            : 1
Формат                                   : AVC
Формат/Информация                        : Advanced Video Codec
Профиль формата                          : High@L4
Настройки формата                        : CABAC / 4 Ref Frames
Параметр CABAC формата                   : Да
Параметр RefFrames формата               : 4 кадра
Идентификатор кодека                     : V_MPEG4/ISO/AVC
Продолжительность                        : 1 ч. 27 м.
Битрейт                                  : 5189 Кбит/сек
Ширина                                   : 1920 пикселей
Высота                                   : 1036 пикселей
Соотношение сторон                       : 1,85:1
Режим частоты кадров                     : Постоянный
Частота кадров                           : 23,976 кадра/сек
Цветовое пространство                    : YUV
Субдискретизация насыщенности            : 4:2:0
Битовая глубина                          : 8 бит
Тип развёртки                            : Прогрессивная
Бит/(Пиксели*Кадры)                      : 0.109
Размер потока                            : 3,16 Гбайт (90%)
Язык                                     : English
Default                                  : Да
Forced                                   : Нет
Цветовой диапазон                        : Limited
Основные цвета                           : BT.709
Характеристики трансфера                 : BT.709
Коэффициенты матрицы                     : BT.709

Аудио #1
Идентификатор                            : 2
Формат                                   : AC-3
Формат/Информация                        : Audio Coding 3
Идентификатор кодека                     : A_AC3
Продолжительность                        : 1 ч. 27 м.
Вид битрейта                             : Постоянный
Битрейт                                  : 192 Кбит/сек
Каналы                                   : 2 канала
Расположение каналов                     : Front: L R
Частота                                  : 48,0 КГц
Частота кадров                           : 31,250 кадров/сек (1536 SPF)
Битовая глубина                          : 16 бит
Метод сжатия                             : С потерями
Задержка видео                           : -42 мс.
Размер потока                            : 120 Мбайт (3%)
Язык                                     : Russian
Default                                  : Да
Forced                                   : Нет

Аудио #2
Идентификатор                            : 3
Формат                                   : AC-3
Формат/Информация                        : Audio Coding 3
Идентификатор кодека                     : A_AC3
Продолжительность                        : 1 ч. 27 м.
Вид битрейта                             : Постоянный
Битрейт                                  : 384 Кбит/сек
Каналы                                   : 6 каналов
Расположение каналов                     : Front: L C R, Side: L R, LFE
Частота                                  : 48,0 КГц
Частота кадров                           : 31,250 кадров/сек (1536 SPF)
Битовая глубина                          : 16 бит
Метод сжатия                             : С потерями
Задержка видео                           : -42 мс.
Размер потока                            : 239 Мбайт (7%)
Язык                                     : English
Default                                  : Нет
Forced                                   : Нет

Текст
Идентификатор                            : 4
Формат                                   : UTF-8
Идентификатор кодека                     : S_TEXT/UTF8
Идентификатор кодека/Информация          : UTF-8 Plain Text
Продолжительность                        : 1 ч. 22 м.
Битрейт                                  : 53 бит/сек
ElementCount                             : 1018
Размер потока                            : 32,5 Кбайт (0%)
Язык                                     : English
Default                                  : Нет
Forced                                   : Нет

Меню
00:00:00.000                             : en:1
00:05:50.642                             : en:2
00:10:14.780                             : en:3
00:16:14.388                             : en:4
00:22:31.264                             : en:5
00:28:33.708                             : en:6
00:32:44.667                             : en:7
00:38:48.113                             : en:8
00:43:59.841                             : en:9
00:49:44.560                             : en:10
00:54:29.386                             : en:11
01:00:37.753                             : en:12
01:05:15.530                             : en:13
01:11:29.236                             : en:14
01:16:12.685                             : en:15
01:21:21.325                             : en:16



Скриншоты:
[+] Всего файлов в раздаче - 1:
Код 211 [211] 2018 [WEB-DL 1080p].mkv3.51 GB

Отзывы
Зарегистрируйтесь чтобы добавить комментарий.
Обратная связь
Copyleft ©