↑↓Torrent.by
Поиск
Логин: Регистрация
Пароль: Восстановить пароль
Загрузка...

Код 211 / 211 (2018) WEB-DLRip | L

Скачать kod-211-2018-web-dlrip-l.torrent
U Магнитная ссылка Размер: 1.37 GB Раздают: 258 Качают: 133 Добавлен: 2018-06-13 13:12:09
Код 211 / 211 (2018) WEB-DLRip | L

Название: Код 211
Оригинальное название: 211
Год выпуска: 2018
Страна: США
Жанр: боевик, драма, история
Перевод: Любительский многоголосый [MUZOBOZ]
Примечание: Релиз без рекламы
Продолжительность: 01:27:04
Режиссер: Йорк Шеклтон
В ролях: Николас Кейдж (Mike Chandler), Софи Скелтон (Lisa MacAvoy), Майкл Рейни мл. (Kenny), Дуэйн Камерон (Steve MacAvoy), Уэстон Кейдж (Luke), Кори Хардрикт (Hanson), Ори Феффер (Tre), Марк Баснайт (Police Chief), Аманда Серни (Sarah), Майкл Беллисарио (Hyde), Рэймонд Стирс (Mandell), Derek Horse (Floyd)

Описание:
Полицейский код 211 - ограбление банка. Такой сигнал получает офицер Чандлер во время своей смены. Он бросается на место событий, чтобы не позволить преступникам сбежать с добычей.

 
MPAA: R - Лицам до 17 лет обязательно присутствие взрослого
Качество: WEB-DLRip
Формат: AVI
Видео: XviD, 704x384 (1.85:1), 2050 kbps, 23,976 fps, 0,316 bpp
Аудио: AC3 / 2.0 / 48 kHz / 192 kbps /
Семпл


[+] ОтчетМедиаИнфо

General
Complete name                            : F:211.(2018).MVO.WEB-DLRip.avi
Format                                   : AVI
Format/Info                              : Audio Video Interleave
File size                                : 1.37 GiB
Duration                                 : 1 h 27 min
Overall bit rate                         : 2 252 kb/s
Writing application                      : VirtualDubModRus 1.5.10.2 (build 2542/release)
Writing library                          : VirtualDubMod build 2542/release

Video
ID                                       : 0
Format                                   : MPEG-4 Visual
Format profile                           : Advanced Simple@L5
Format settings, BVOP                    : 1
Format settings, QPel                    : No
Format settings, GMC                     : No warppoints
Format settings, Matrix                  : Custom
Codec ID                                 : XVID
Codec ID/Hint                            : XviD
Duration                                 : 1 h 27 min
Bit rate                                 : 2 051 kb/s
Width                                    : 704 pixels
Height                                   : 384 pixels
Display aspect ratio                     : 1.85:1
Frame rate                               : 23.976 (24000/1001) FPS
Color space                              : YUV
Chroma subsampling                       : 4:2:0
Bit depth                                : 8 bits
Scan type                                : Progressive
Compression mode                         : Lossy
Bits/(Pixel*Frame)                       : 0.316
Stream size                              : 1.25 GiB (91%)
Writing library                          : XviD 73

Audio
ID                                       : 1
Format                                   : AC-3
Format/Info                              : Audio Coding 3
Mode extension                           : CM (complete main)
Format settings, Endianness              : Big
Codec ID                                 : 2000
Duration                                 : 1 h 27 min
Bit rate mode                            : Constant
Bit rate                                 : 192 kb/s
Channel(s)                               : 2 channels
Channel positions                        : Front: L R
Sampling rate                            : 48.0 kHz
Frame rate                               : 31.250 FPS (1536 spf)
Compression mode                         : Lossy
Stream size                              : 120 MiB (9%)
Alignment                                : Split accross interleaves
Interleave, duration                     : 42  ms (1.00 video frame)
Interleave, preload duration             : 500  ms



Скриншоты:
[+] Всего файлов в раздаче - 1:
211.(2018).MVO.WEB-DLRip.avi1.37 GB

Показать еще раздачи по запросу dlrip:
Вчера U Интервью с Богом / An Interview with God (2018) WEB-DLRip от ELEKTRI4KA | iTunes 1.37 GB ↑ 152 ↓ 53
Вчера U Опасные танцы (2018) WEB-DLRip от MegaPeer 1.37 GB ↑ 222 ↓ 67
Вчера U Пекарь и красавица [01-09 из 17] (2018) WEB-DLRip от Files-x 2.49 GB ↑ 156 ↓ 246
Вчера U Месть на десерт [01-04 из 04] (2018) WEB-DLRip-AVC от Files-x 2.27 GB ↑ 36 ↓ 19
Вчера U Ральф против интернета / Ralph Breaks the Internet (2018) WEB-DLRip от Generalfilm | КПК | iTunes 431.30 MB ↑ 41 ↓ 9
Вчера U Гранд тур / The Grand Tour [03x01-06 из 12] (2019) WEB-DLRip | AlexFilm 4.71 GB ↑ 31 ↓ 80
Вчера U Снежная Королева: Зазеркалье (2018) WEB-DLRip от Scarabey | iTunes 1.39 GB ↑ 27 ↓ 3

Отзывы
Зарегистрируйтесь чтобы добавить комментарий.
Обратная связь
Copyleft ©