↑↓Torrent.by
Поиск
Логин: Регистрация
Пароль: Восстановить пароль
Загрузка...

Истерия / Delirium (2018) WEB-DLRip-AVC | iTunes

Скачать isteriya-delirium-2018-web-dlrip-avc-itunes.torrent
U Магнитная ссылка Размер: 1.37 GB Раздают: 269 Качают: 90 Добавлен: 2018-06-13 19:42:36
Истерия / Delirium (2018) WEB-DLRip-AVC | iTunes

Название: Истерия
Оригинальное название: Delirium
Год выхода: 2018
Жанр: ужасы, триллер
Режиссер: Дэннис Илиадис
Сценарий: Адам Аллека
В ролях: Тофер Грейс, Дженезис Родригес, Патришия Кларксон, Каллэн Мулвей, Робин Томас, Дэйзи МакКрэкин, Келли Барксдэйл, Браден Фицджералд, Коуди Салливан, Марти Эли Шварц и др.

О фильме:
Бывший пациент клиники для душевнобольных возвращается в роскошный особняк, доставшийся ему после смерти родителей. В этом доме прошло все его детство, и с ним связано много ярких воспоминаний. Но со временем в доме начинают происходить странные и пугающие вещи. Или это все — в его голове?

Страна: США
Продолжительность: 01:36:06
Перевод: Профессиональный (полное дублирование) [iTunes]

Файл
Кодек: х.264
Качество: WEB-DLRip-AVC
Видео: 928x500 (1.85:1), 23.976 fps, AVC MPEG-4 (х.264), High@L4.1 ~1610 kbps, 0.145 bit/pixel
Звук: 48 kHz, AC3 Dolby Digital, 3/2 (L,C,R,l,r) + LFE ch, ~384 kbps

Реклама отсутствует.


[+] MediaInfo
General
Unique ID                        : 203063780150680668625841137098005574457 (0x98C4A956D61560BC99D8B86D1AAA7339)
Complete name                    : E:Delirium.2018_Klayd X.mkv
Format                           : Matroska
File size                        : 1.37 GiB
Duration                         : 1h 36mn
Overall bit rate                 : 2 035 Kbps
Movie name                       : Истерия (2018) WEB-DLRip-AVC_ivanes20031987
Encoded date                     : UTC 2018-06-12 20:39:38
Writing application              : mkvmerge v4.4.0 ('Die Wiederkehr') сборка от Jan  3 2011 21:40:45
Writing library                  : libebml v1.0.0 + libmatroska v1.0.0
Cover                            : Yes

Video
ID                               : 1
Format                           : AVC
Format/Info                      : Advanced Video Codec
Format profile                   : High@L4.1
Format settings, CABAC           : Yes
Format settings, ReFrames        : 14 frames
Codec ID                         : V_MPEG4/ISO/AVC
Duration                         : 1h 36mn
Bit rate                         : 1 610 Kbps
Width                            : 928 pixels
Height                           : 500 pixels
Display aspect ratio             : 1.856
Frame rate                       : 23.976 fps
Color space                      : YUV
Chroma subsampling               : 4:2:0
Bit depth                        : 8 bits
Scan type                        : Progressive
Bits/(Pixel*Frame)               : 0.145
Stream size                      : 1.08 GiB (79%)
Title                            : Rip by ivanes20031987
Writing library                  : x264 core 155 r2901 7d0ff22
Encoding settings                : cabac=1 / ref=14 / deblock=1:-3:-3 / analyse=0x3:0x113 / me=umh / subme=10 / psy=1 / psy_rd=1.00:0.00 / mixed_ref=1 / me_range=32 / chroma_me=1 / trellis=2 / 8x8dct=1 / cqm=0 / deadzone=21,11 / fast_pskip=0 / chroma_qp_offset=-2 / threads=12 / lookahead_threads=3 / sliced_threads=0 / nr=0 / decimate=0 / interlaced=0 / bluray_compat=0 / constrained_intra=0 / bframes=14 / b_pyramid=2 / b_adapt=2 / b_bias=0 / direct=1 / weightb=1 / open_gop=0 / weightp=2 / keyint=240 / keyint_min=23 / scenecut=40 / intra_refresh=0 / rc_lookahead=60 / rc=crf / mbtree=0 / crf=17.6 / qcomp=0.60 / qpmin=0 / qpmax=69 / qpstep=4 / vbv_maxrate=50000 / vbv_bufsize=62500 / crf_max=0.0 / nal_hrd=none / filler=0 / ip_ratio=1.40 / pb_ratio=1.30 / aq=1:1.00

Audio
ID                               : 2
Format                           : AC-3
Format/Info                      : Audio Coding 3
Mode extension                   : CM (complete main)
Codec ID                         : A_AC3
Duration                         : 1h 36mn
Bit rate mode                    : Constant
Bit rate                         : 384 Kbps
Channel(s)                       : 6 channels
Channel positions                : Front: L C R, Side: L R, LFE
Sampling rate                    : 48.0 KHz
Bit depth                        : 16 bits
Compression mode                 : Lossy
Stream size                      : 264 MiB (19%)
Title                            : iTunes
Language                         : Russian




Скриншоты:
[+] Всего файлов в раздаче - 1:
Delirium.2018_Klayd X.mkv1.37 GB

Текущая раздача:
ДатаКомментарии    РазмерПиры
2018-06-13 U Истерия / Delirium (2018) WEB-DLRip-AVC | iTunes 1.37 GB ↑ 269 ↓ 90

Похожие раздачи по запросу - истерия:
Сегодня U Истерия / Delirium (2018) WEB-DLRip-AVC от OlLanDGroup | iTunes 1.46 GB ↑ 37 ↓ 4
2018-06-13 U Истерия / Delirium (2018) WEB-DLRip-AVC от ExKinoRay | iTunes 745.92 MB ↑ 122 ↓ 55
2018-06-13 U Истерия / Delirium (2018) WEB-DLRip от MegaPeer | iTunes 1.46 GB ↑ 316 ↓ 154
2018-06-13 U Истерия / Delirium (2018) WEB-DL 1080p | iTunes 3.56 GB ↑ 334 ↓ 147

Отзывы
Зарегистрируйтесь чтобы добавить комментарий.
Обратная связь
Copyleft ©