↑↓Torrent.by
Поиск
Логин: Регистрация
Пароль: Восстановить пароль
Загрузка...

2036, происхождение неизвестно / 2036 Origin Unknown (2018) WEBRip 720p | L2

Скачать 2036-proishozhdenie-neizvestno-origin-unknown-2018-webrip-720p-l2.torrent
U Магнитная ссылка Размер: 2.22 GB Раздают: 176 Качают: 146 Добавлен: 2018-06-13 19:42:49
2036, происхождение неизвестно / 2036 Origin Unknown (2018) WEBRip 720p | L2

Название: 2036, происхождение неизвестно
Оригинальное название: 2036 Origin Unknown
Год выхода: 2018
Жанр: Фантастика
Режиссер: Хасраф Дулул
В ролях: Кэти Сакхофф, Джули Кокс, Стивен Кри, Рэй Фиарон, Изабелль Марлоу, Джо Уолтерс, Дэвид К.С. Тсе
О фильме:
Космическая экспедиция обнаруживает на поверхности Марса нечто, способное изменить жизнь человечества навсегда. Но вместо того, чтобы помочь людям раскрыть марсианскую тайну, искусственный интеллект на борту корабля берёт управление на себя.

Страна: Великобритания, Head Gear Films, Metrol Technology, Origin Unknown Films
Продолжительность: 01:35:04
Перевод: Любительский (двухголосый закадровый) | HiWay Grope

Файл
Кодек: MPEG-4 AVC/x.264
Качество: WEBRip 720p
Видео: 1280x528, 24.000 fps, ~2899 kbps, 0.179 bit/pixel
Звук:
Аудио rus: AC3, 48 kHz, 6 ch, 384 Kbps
Субтитры: отсутствуют

Реклама: присутствует

Семпл

Релиз от: HiWay Grope


[+] MediaInfo:

General
Unique ID                                : 290315046120138878162831836686524932755 (0xDA68A4E14E48F52BCF3F6B8BA37CE293)
Complete name                            : E:2036.Origin.Unknown.2018.720p.WEBRip.HiWayGrope2036.Origin.Unknown.2018.720p.WEBRip.HiWayGrope.mkv
Format                                   : Matroska
Format version                           : Version 4 / Version 2
File size                                : 2.22 GiB
Duration                                 : 1h 35mn
Overall bit rate                         : 3 349 Kbps
Encoded date                             : UTC 2018-06-13 15:50:28
Writing application                      : mkvmerge v21.0.0 ('Tardigrades Will Inherit The Earth') 64-bit
Writing library                          : libebml v1.3.5 + libmatroska v1.4.8

Video
ID                                       : 1
Format                                   : AVC
Format/Info                              : Advanced Video Codec
Format profile                           : Main@L4.1
Format settings, CABAC                   : Yes
Format settings, ReFrames                : 4 frames
Codec ID                                 : V_MPEG4/ISO/AVC
Duration                                 : 1h 35mn
Bit rate                                 : 2 899 Kbps
Width                                    : 1 280 pixels
Height                                   : 528 pixels
Display aspect ratio                     : 2.40:1
Frame rate mode                          : Constant
Frame rate                               : 24.000 fps
Color space                              : YUV
Chroma subsampling                       : 4:2:0
Bit depth                                : 8 bits
Scan type                                : Progressive
Bits/(Pixel*Frame)                       : 0.179
Stream size                              : 1.93 GiB (87%)
Language                                 : English
Default                                  : Yes
Forced                                   : No
Color range                              : Limited
Color primaries                          : BT.601 NTSC
Transfer characteristics                 : BT.601
Matrix coefficients                      : BT.601

Audio
ID                                       : 2
Format                                   : AC-3
Format/Info                              : Audio Coding 3
Mode extension                           : CM (complete main)
Format settings, Endianness              : Big
Codec ID                                 : A_AC3
Duration                                 : 1h 35mn
Bit rate mode                            : Constant
Bit rate                                 : 384 Kbps
Channel(s)                               : 6 channels
Channel positions                        : Front: L C R, Side: L R, LFE
Sampling rate                            : 48.0 KHz
Frame rate                               : 31.250 fps (1536 spf)
Compression mode                         : Lossy
Stream size                              : 261 MiB (11%)
Language                                 : Russian
Default                                  : Yes
Forced                                   : No




Скриншоты:
[+] Всего файлов в раздаче - 1:
2036.Origin.Unknown.2018.720p.WEBRip.HiWayGrope.mkv2.22 GB

Показать еще раздачи по запросу происхождение:
2019-01-06 U Происхождение / Origin [S01] (2018) WEBRip | LostFilm 7.57 GB ↑ 102 ↓ 34
2018-11-19 U Происхождение / Origin [S01] (2018) WEBRip 720p | OMSKBIRD 11.32 GB ↑ 62 ↓ 66
2018-11-19 U Происхождение / Origin [S01] (2018) WEBRip | OMSKBIRD 7.08 GB ↑ 218 ↓ 89
2018-11-19 U Происхождение / Origin [S01] (2018) WEBRip 720p | SunshineStudio 7.04 GB ↑ 46 ↓ 22
2018-11-17 U Происхождение / Origin [S01] (2018) WEBRip 1080p | IdeaFilm 27.59 GB ↑ 155 ↓ 217
2018-11-17 U Происхождение / Origin [S01] (2018) WEBRip 720p | IdeaFilm 18.76 GB ↑ 135 ↓ 204
2018-11-17 U Происхождение / Origin [S01] (2018) WEBRip | IdeaFilm 6.79 GB ↑ 146 ↓ 68

Отзывы
Зарегистрируйтесь чтобы добавить комментарий.
Обратная связь
Copyleft ©