↑↓Torrent.by
Поиск
Логин: Регистрация
Пароль: Восстановить пароль
Загрузка...

Истерия / Delirium (2018) WEB-DLRip-AVC от ExKinoRay | iTunes

Скачать isteriya-delirium-2018-web-dlrip-avc-ot-exkinoray-itunes.torrent
U Магнитная ссылка Размер: 745.92 MB Раздают: 123 Качают: 55 Добавлен: 2018-06-13 19:43:06
Истерия / Delirium (2018) WEB-DLRip-AVC от ExKinoRay | iTunes

Название: Истерия
Оригинальное название: Delirium
Год выпуска: 2018
Жанр:  Ужасы, триллер
Режиссер: Дэннис Илиадис
В ролях: Тофер Грэйс, Дженезис Родригез, Патришия Кларксон, Каллэн Мулвей, Робин Томас, Дэйзи МакКрэкин, Коуди Салливан, Браден Фицджералд, Марти Эли Шварц, Келли Барксдэйл

О фильме :
Бывший пациент клиники для душевнобольных (Тофер Грэйс) после завершения курса лечения останавливается в большом особняке, который достался ему по наследству после смерти родителей. В этом доме прошло всё детство главного героя, и с ним у него связано очень много воспоминаний. Некоторое время спустя в доме начинают происходить необъяснимые и пугающие вещи. Стараясь отбросить мысли о собственном безумии, парень начинает верить в то, что в доме всё ещё живет призрак его покойного жестокого отца.

Страна: Ирландия
Студия: Bac Films, Savage Productions, Tilted Pictures
Продолжительность: 01:36:05
Перевод: Дублированный | iTunes

Файл
Формат: MKV
Качество: WEB-DLRip-AVC
Видео: MPEG-4 AVC, 752x404, ~ 1008 Кбит/с
Аудио:  AAC-HE, 2 ch, ~ 76 Кбит/с
Субтитры: Нет

Релиз:


[+] MI
Общее
Уникальный идентификатор : 175723659744783539290290001664580375410 (0x84332554B865DBDAB975E91C02BDD372)
Полное имя : D:MOVIESisteriya.2018.ExKinoRay.mkv
Формат : Matroska
Версия формата : Version 4 / Version 2
Размер файла : 746 Мбайт
Продолжительность : 1 ч. 36 м.
Общий поток : 1085 Кбит/сек
Дата кодирования : UTC 2018-06-13 09:40:18
Программа кодирования : mkvmerge v15.0.0 ('Duel with the Devil') 64-bit
Библиотека кодирования : libebml v1.3.5 + libmatroska v1.4.5

Видео
Идентификатор : 1
Формат : AVC
Формат/Информация : Advanced Video Codec
Профиль формата : High@L4.1
Параметр CABAC формата : Да
Параметр RefFrames формата : 10 кадров
Идентификатор кодека : V_MPEG4/ISO/AVC
Продолжительность : 1 ч. 36 м.
Битрейт : 1008 Кбит/сек
Ширина : 752 пикселя
Высота : 404 пикселя
Соотношение сторон : 1,85:1
Режим частоты кадров : Постоянный
Частота кадров : 23,976 (24000/1001) кадра/сек
Цветовое пространство : YUV
Субдискретизация насыщенности : 4:2:0
Битовая глубина : 8 бит
Тип развёртки : Прогрессивная
Бит/(Пиксели*Кадры) : 0.138
Размер потока : 692 Мбайт (93%)
Библиотека кодирования : x264 core 152 r2851kMod ba24899
Настройки программы : cabac=1 / ref=10 / deblock=1:-3:-3 / analyse=0x3:0x133 / me=umh / subme=11 / psy=1 / fade_compensate=0.00 / psy_rd=1.00:0.15 / mixed_ref=1 / me_range=32 / chroma_me=1 / trellis=2 / 8x8dct=1 / cqm=0 / deadzone=21,11 / fast_pskip=0 / chroma_qp_offset=-3 / threads=6 / lookahead_threads=1 / sliced_threads=0 / nr=0 / decimate=0 / interlaced=0 / bluray_compat=0 / constrained_intra=0 / bframes=10 / b_pyramid=2 / b_adapt=2 / b_bias=0 / direct=3 / weightb=1 / open_gop=0 / weightp=2 / keyint=240 / keyint_min=23 / scenecut=40 / intra_refresh=0 / rc_lookahead=40 / rc=2pass / mbtree=1 / bitrate=1008 / ratetol=1.0 / qcomp=0.60 / qpmin=0 / qpmax=69 / qpstep=4 / cplxblur=20.0 / qblur=0.5 / vbv_maxrate=50000 / vbv_bufsize=62500 / nal_hrd=none / filler=0 / ip_ratio=1.40 / aq=3:1.00
Default : Да
Forced : Нет

Аудио
Идентификатор : 2
Формат : AAC
Формат/Информация : Advanced Audio Codec
Профиль формата : HE-AAC / LC
Идентификатор кодека : A_AAC
Продолжительность : 1 ч. 36 м.
Битрейт : 76,0 Кбит/сек
Каналы : 2 канала
Расположение каналов : Front: L R
Частота : 48,0 КГц / 24,0 КГц
Частота кадров : 23,438 кадра/сек (1024 SPF)
Метод сжатия : С потерями
Задержка видео : 31 мс.
Размер потока : 52,2 Мбайт (7%)
Default : Да
Forced : Нет

Меню
00:00:00.000 : en:1
00:03:43.000 : en:2
00:13:45.000 : en:3
00:24:11.000 : en:4
00:34:01.000 : en:5
00:43:49.000 : en:6
00:55:05.000 : en:7
01:04:02.000 : en:8
01:13:01.000 : en:9
01:19:19.000 : en:10
01:30:11.000 : en:11



Скриншоты:
[+] Всего файлов в раздаче - 1:
isteriya.2018.ExKinoRay.mkv745.92 MB

Текущая раздача:
ДатаКомментарии    РазмерПиры
2018-06-13 U Истерия / Delirium (2018) WEB-DLRip-AVC от ExKinoRay | iTunes 745.92 MB ↑ 123 ↓ 55

Похожие раздачи по запросу - истерия:
2018-06-19 U Истерия / Delirium (2018) WEB-DLRip-AVC от OlLanDGroup | iTunes 1.46 GB ↑ 37 ↓ 6
2018-06-13 U Истерия / Delirium (2018) WEB-DLRip-AVC | iTunes 1.37 GB ↑ 269 ↓ 90
2018-06-13 U Истерия / Delirium (2018) WEB-DLRip от MegaPeer | iTunes 1.46 GB ↑ 317 ↓ 154
2018-06-13 U Истерия / Delirium (2018) WEB-DL 1080p | iTunes 3.56 GB ↑ 340 ↓ 148

Отзывы
Зарегистрируйтесь чтобы добавить комментарий.
Обратная связь
Copyleft ©