↑↓Torrent.by
Поиск
Логин: Регистрация
Пароль: Восстановить пароль
Загрузка...

Тренер (2018) WEB-DL 1080p | iTunes

Скачать trener-2018-web-dl-1080p-itunes.torrent
U Магнитная ссылка Размер: 4.69 GB Раздают: 1117 Качают: 791 Добавлен: 2018-06-14 08:30:17
Тренер (2018) WEB-DL 1080p | iTunes

Название: Тренер
Год выхода: 2018
Жанр: Драма, спорт
Режиссер: Данила Козловский
В ролях: Данила Козловский, Владимир Ильин, Андрей Смоляков, Ольга Зуева, Ирина Горбачёва, Виктор Вержбицкий, Мария Лобанова, Павел Ворожцов, Игорь Гордин, Александр Ильин

О фильме:
Футболист национальной сборной Юрий Столешников в ответственный момент не забивает пенальти. После досадной ошибки Столешников покидает сборную, завершает карьеру и становится тренером маленькой провинциальной команды. Именно с этим клубом Столешникову предстоит совершить чудо и вновь поверить в себя.

 
Страна: Россия
Студия: DK Entertainment, Кинослово, Студия Тритэ
Продолжительность: 02:12:22
Перевод: Не требуется (русский) iTunes

Файл
Кодек: H.264
Качество: WEB-DL 1080p | iTunes
Видео: AVC/H.264, 1920x804, ~4690 kbps, 25 fps
Звук: AC3, 6 ch, 384 Kbps
Субтитры: Отсутствуют


[+] Mediainfo
Общее
Уникальный идентификатор                 : 33063215503011944955586507944710103046 (0x18DFBE61C7922E819A3589D8296FE006)
Полное имя                               : TRENER.2018.WEB-DL.1080p.mkv
Формат                                   : Matroska
Версия формата                           : Version 4 / Version 2
Размер файла                             : 4,69 Гбайт
Продолжительность                        : 2 ч. 12 м.
Общий поток                              : 5076 Кбит/сек
Дата кодирования                         : UTC 2018-06-13 20:59:26
Программа кодирования                    : mkvmerge v23.0.0 ('The Bride Said No') 64-bit
Библиотека кодирования                   : libebml v1.3.6 + libmatroska v1.4.9

Видео
Идентификатор                            : 1
Формат                                   : AVC
Формат/Информация                        : Advanced Video Codec
Профиль формата                          : High@L4
Настройки формата                        : CABAC / 5 Ref Frames
Параметр CABAC формата                   : Да
Параметр RefFrames формата               : 5 кадров
Идентификатор кодека                     : V_MPEG4/ISO/AVC
Продолжительность                        : 2 ч. 12 м.
Битрейт                                  : 4690 Кбит/сек
Ширина                                   : 1920 пикселей
Высота                                   : 804 пикселя
Соотношение сторон                       : 2,40:1
Режим частоты кадров                     : Постоянный
Частота кадров                           : 25,000 кадров/сек
Цветовое пространство                    : YUV
Субдискретизация насыщенности            : 4:2:0
Битовая глубина                          : 8 бит
Тип развёртки                            : Прогрессивная
Бит/(Пиксели*Кадры)                      : 0.122
Размер потока                            : 4,34 Гбайт (92%)
Язык                                     : Russian
Default                                  : Да
Forced                                   : Нет
Цветовой диапазон                        : Limited
Основные цвета                           : BT.709
Характеристики трансфера                 : BT.709
Коэффициенты матрицы                     : BT.709

Аудио
Идентификатор                            : 2
Формат                                   : AC-3
Формат/Информация                        : Audio Coding 3
Идентификатор кодека                     : A_AC3
Продолжительность                        : 2 ч. 12 м.
Вид битрейта                             : Постоянный
Битрейт                                  : 384 Кбит/сек
Каналы                                   : 6 каналов
Расположение каналов                     : Front: L C R, Side: L R, LFE
Частота                                  : 48,0 КГц
Частота кадров                           : 31,250 кадров/сек (1536 SPF)
Битовая глубина                          : 16 бит
Метод сжатия                             : С потерями
Размер потока                            : 364 Мбайт (8%)
Язык                                     : Russian
ServiceKind                              : Complete Main
Default                                  : Да
Forced                                   : Нет  



Скриншоты:
[+] Всего файлов в раздаче - 1:
TRENER.2018.WEB-DL.1080p.mkv4.69 GB

Текущая раздача:
ДатаКомментарии    РазмерПиры
2018-06-14 U Тренер (2018) WEB-DL 1080p | iTunes 4.69 GB ↑ 1117 ↓ 791

Показать еще раздачи по запросу тренер:
2018-07-16 U Тренер (2018) HDTVRip от Files-x 2.06 GB ↑ 79 ↓ 38
2018-06-16 U Тренер (2018) WEB-DLRip от Scarabey | iTunes 796.69 MB ↑ 139 ↓ 51
2018-06-16 U Тренер (2018) WEB-DLRip-AVC | iTunes 1.45 GB ↑ 177 ↓ 82
2018-06-16 U Тренер (2018) WEB-DLRip от Scarabey | iTunes 2.18 GB ↑ 415 ↓ 122
2018-06-16 U Тренер (2018) WEB-DLRip от Scarabey | iTunes 1.45 GB ↑ 537 ↓ 162
2018-06-15 U Тренер (2018) WEB-DLRip от Generalfilm | КПК | iTunes 503.48 MB ↑ 99 ↓ 32
2018-06-15 U Тренер (2018) WEB-DLRip-AVC от ExKinoRay | iTunes 746.60 MB ↑ 171 ↓ 33

Отзывы
Зарегистрируйтесь чтобы добавить комментарий.
Обратная связь
Copyleft ©