↑↓Torrent.by
Поиск
Логин: Регистрация
Пароль: Восстановить пароль
Загрузка...

Кролик Питер / Peter Rabbit (2018) BDRip 1080p от Heisenberg & NNMClub | Лицензия

Скачать krolik-piter-peter-rabbit-2018-bdrip-1080p-ot-heisenberg-nnmclub-licenziya.torrent
U Магнитная ссылка Размер: 4.37 GB Раздают: 140 Качают: 24 Добавлен: 2018-06-16 13:39:36
Кролик Питер / Peter Rabbit (2018) BDRip 1080p от Heisenberg & NNMClub | Лицензия

Производство: Австралия, США / Sony Pictures Entertainment (SPE)
Жанр:  Мультфильм, фэнтези, комедия, приключения, семейный

Режиссер: Уилл Глак
Продюсер: Джейсон Бэт, Даг Белград, Катрин Бишоп
Актеры: Джеймс Корден, Файсаль Баззи, Донал Глисон, Сиа, Колин Муди, Сэм Нилл, Марго Робби, Элизабет Дебики, Дэйзи Ридли, Роуз Бирн

Описание:
Фильм о приключениях маленького и непоседливого крольчонка по имени Питер, который хочет пробраться в огород к грозному фермеру и вдоволь полакомиться там фруктами и овощами.

Релиз от: Heisenberg | NNMClub
Продолжительность: 01:34:42
Качество: BDRip 1080p
Перевод: Дублированный (Лицензия EUR)
Субтитры: Русские (forced, full), Украинские, Английские (full, SDH, SDH Colored)

Видео: H.264/AVC, 1920x800, (2.40:1), ~4880 kbps, 23.976 fps
Аудио 1: AC3, 6 ch, 640 kbps - Русский
Аудио 2: AC3, 6 ch, 448 kbps - Украинский
Аудио 3: AC3, 6 ch, 640 kbps - Английский

Скриншоты:


[+] Mediainfo
General
Unique ID                   : 25827275220141082579859400136526279940 (0x136E26FB5A53EEF1DC785D4DA4FE3504)
Complete name               : S:Peter Rabbit.2018.BDRip.1080p.NNMClub.mkv
Format                      : Matroska
Format version              : Version 4 / Version 2
File size                   : 4.37 GiB
Duration                    : 1 h 34 min
Overall bit rate            : 6 609 kb/s
Movie name                  : Peter Rabbit (2018) | NNMClub
Encoded date                : UTC 2018-06-14 09:41:13
Writing application         : mkvmerge v24.0.0 ('Beyond The Pale') 64-bit
Writing library             : libebml v1.3.6 + libmatroska v1.4.9
Cover                       : Yes
Attachments                 : x264.log / Cover.jpg

Video
ID                          : 1
Format                      : AVC
Format/Info                 : Advanced Video Codec
Format profile              : High@L4.1
Format settings             : CABAC / 5 Ref Frames
Format settings, CABAC      : Yes
Format settings, ReFrames   : 5 frames
Codec ID                    : V_MPEG4/ISO/AVC
Duration                    : 1 h 34 min
Bit rate                    : 4 880 kb/s
Width                       : 1 920 pixels
Height                      : 800 pixels
Display aspect ratio        : 2.40:1
Frame rate mode             : Constant
Frame rate                  : 23.976 (24000/1001) FPS
Color space                 : YUV
Chroma subsampling          : 4:2:0
Bit depth                   : 8 bits
Scan type                   : Progressive
Bits/(Pixel*Frame)          : 0.133
Stream size                 : 3.23 GiB (74%)
Writing library             : x264 core 155 r2901 7d0ff22
Encoding settings           : cabac=1 / ref=5 / deblock=1:-2:-2 / analyse=0x3:0x133 / me=umh / subme=11 / psy=1 / psy_rd=1.00:0.00 / mixed_ref=1 / me_range=32 / chroma_me=1 / trellis=2 / 8x8dct=1 / cqm=0 / deadzone=21,11 / fast_pskip=0 / chroma_qp_offset=-2 / threads=6 / lookahead_threads=1 / sliced_threads=0 / nr=0 / decimate=1 / interlaced=0 / bluray_compat=0 / constrained_intra=0 / bframes=12 / b_pyramid=2 / b_adapt=2 / b_bias=0 / direct=3 / weightb=1 / open_gop=0 / weightp=2 / keyint=240 / keyint_min=23 / scenecut=40 / intra_refresh=0 / rc_lookahead=50 / rc=2pass / mbtree=0 / bitrate=4880 / ratetol=1.0 / qcomp=0.60 / qpmin=0 / qpmax=69 / qpstep=4 / cplxblur=20.0 / qblur=0.5 / vbv_maxrate=50000 / vbv_bufsize=62500 / nal_hrd=none / filler=0 / ip_ratio=1.40 / pb_ratio=1.30 / aq=1:1.00
Language                    : English
Default                     : Yes
Forced                      : No

Audio #1
ID                          : 2
Format                      : AC-3
Format/Info                 : Audio Coding 3
Codec ID                    : A_AC3
Duration                    : 1 h 34 min
Bit rate mode               : Constant
Bit rate                    : 640 kb/s
Channel(s)                  : 6 channels
Channel positions           : Front: L C R, Side: L R, LFE
Sampling rate               : 48.0 kHz
Frame rate                  : 31.250 FPS (1536 SPF)
Bit depth                   : 16 bits
Compression mode            : Lossy
Stream size                 : 434 MiB (10%)
Title                       : Dub |  Blu-ray EUR
Language                    : Russian
Service kind                : Complete Main
Default                     : Yes
Forced                      : No

Audio #2
ID                          : 3
Format                      : AC-3
Format/Info                 : Audio Coding 3
Codec ID                    : A_AC3
Duration                    : 1 h 34 min
Bit rate mode               : Constant
Bit rate                    : 448 kb/s
Channel(s)                  : 6 channels
Channel positions           : Front: L C R, Side: L R, LFE
Sampling rate               : 48.0 kHz
Frame rate                  : 31.250 FPS (1536 SPF)
Bit depth                   : 16 bits
Compression mode            : Lossy
Stream size                 : 303 MiB (7%)
Title                       : Dub |  Blu-ray EUR
Language                    : Ukrainian
Service kind                : Complete Main
Default                     : No
Forced                      : No

Audio #3
ID                          : 4
Format                      : AC-3
Format/Info                 : Audio Coding 3
Codec ID                    : A_AC3
Duration                    : 1 h 34 min
Bit rate mode               : Constant
Bit rate                    : 640 kb/s
Channel(s)                  : 6 channels
Channel positions           : Front: L C R, Side: L R, LFE
Sampling rate               : 48.0 kHz
Frame rate                  : 31.250 FPS (1536 SPF)
Bit depth                   : 16 bits
Compression mode            : Lossy
Stream size                 : 434 MiB (10%)
Title                       : Original
Language                    : English
Service kind                : Complete Main
Default                     : No
Forced                      : No

Text #1
ID                          : 5
Format                      : UTF-8
Codec ID                    : S_TEXT/UTF8
Codec ID/Info               : UTF-8 Plain Text
Duration                    : 1 h 33 min
Bit rate                    : 0 b/s
Count of elements           : 12
Stream size                 : 458 Bytes (0%)
Title                       : Forced
Language                    : Russian
Default                     : Yes
Forced                      : No

Text #2
ID                          : 6
Format                      : UTF-8
Codec ID                    : S_TEXT/UTF8
Codec ID/Info               : UTF-8 Plain Text
Duration                    : 1 h 33 min
Bit rate                    : 111 b/s
Count of elements           : 1556
Stream size                 : 76.4 KiB (0%)
Title                       : Full
Language                    : Russian
Default                     : No
Forced                      : No

Text #3
ID                          : 7
Format                      : UTF-8
Codec ID                    : S_TEXT/UTF8
Codec ID/Info               : UTF-8 Plain Text
Duration                    : 1 h 33 min
Bit rate                    : 101 b/s
Count of elements           : 1542
Stream size                 : 70.2 KiB (0%)
Title                       : Full
Language                    : Ukrainian
Default                     : No
Forced                      : No

Text #4
ID                          : 8
Format                      : UTF-8
Codec ID                    : S_TEXT/UTF8
Codec ID/Info               : UTF-8 Plain Text
Duration                    : 1 h 33 min
Bit rate                    : 71 b/s
Count of elements           : 1726
Stream size                 : 49.5 KiB (0%)
Title                       : Full
Language                    : English
Default                     : No
Forced                      : No

Text #5
ID                          : 9
Format                      : UTF-8
Codec ID                    : S_TEXT/UTF8
Codec ID/Info               : UTF-8 Plain Text
Duration                    : 1 h 33 min
Bit rate                    : 79 b/s
Count of elements           : 1940
Stream size                 : 54.7 KiB (0%)
Title                       : SDH
Language                    : English
Default                     : No
Forced                      : No

Text #6
ID                          : 10
Format                      : UTF-8
Codec ID                    : S_TEXT/UTF8
Codec ID/Info               : UTF-8 Plain Text
Duration                    : 1 h 26 min
Bit rate                    : 151 b/s
Count of elements           : 1901
Stream size                 : 95.4 KiB (0%)
Title                       : SDH-Colored
Language                    : English
Default                     : No
Forced                      : No

Menu
00:00:00.000                : :00:00:00.000
00:04:04.786                : :00:04:04.786
00:08:26.297                : :00:08:26.297
00:15:11.702                : :00:15:11.702
00:21:00.634                : :00:21:00.634
00:25:43.584                : :00:25:43.584
00:30:50.265                : :00:30:50.265
00:38:00.862                : :00:38:00.862
00:44:37.341                : :00:44:37.341
00:50:07.671                : :00:50:07.671
00:56:21.295                : :00:56:21.295
01:01:07.581                : :01:01:07.581
01:07:02.560                : :01:07:02.560
01:10:30.810                : :01:10:30.810
01:14:35.137                : :01:14:35.137
01:21:51.990                : :01:21:51.990



[+] x264 log

x264 [info]: profile High, level 4.1
x264 [info]: frame I:1469  Avg QP:18.56  size:176052
x264 [info]: frame P:30217 Avg QP:20.73  size: 52322
x264 [info]: frame B:104562 Avg QP:22.82  size: 15538
x264 [info]: consecutive B-frames:  2.3%  3.1%  5.3% 34.4% 14.3% 27.4%  5.0%  3.2%  0.7%  3.9%  0.2%  0.2%  0.0%
x264 [info]: mb I  I16..4:  3.4% 83.4% 13.2%
x264 [info]: mb P  I16..4:  1.2% 11.4%  1.3%  P16..4: 33.6% 35.0% 10.0%  1.6%  0.1%    skip: 5.8%
x264 [info]: mb B  I16..4:  0.2%  1.3%  0.1%  B16..8: 38.0% 15.9%  1.8%  direct: 3.7%  skip:39.0%  L0:42.8% L1:47.9% BI: 9.3%
x264 [info]: 8x8 transform intra:82.1% inter:65.5%
x264 [info]: direct mvs  spatial:99.5% temporal:0.5%
x264 [info]: coded y,uvDC,uvAC intra: 86.8% 77.7% 43.9% inter: 19.4% 16.6% 1.9%
x264 [info]: i16 v,h,dc,p: 16% 15%  3% 66%
x264 [info]: i8 v,h,dc,ddl,ddr,vr,hd,vl,hu:  7%  8%  5% 10% 15% 13% 15% 12% 15%
x264 [info]: i4 v,h,dc,ddl,ddr,vr,hd,vl,hu:  8% 10%  5%  8% 15% 14% 16% 10% 14%
x264 [info]: i8c dc,h,v,p: 33% 28% 18% 21%
x264 [info]: Weighted P-Frames: Y:3.9% UV:2.2%
x264 [info]: ref P L0: 58.7% 10.8% 17.8%  7.7%  4.9%  0.2%  0.0%
x264 [info]: ref B L0: 85.6% 10.4%  3.2%  0.8%
x264 [info]: ref B L1: 96.4%  3.6%
x264 [info]: kb/s:4877.09



Скриншоты:
[+] Всего файлов в раздаче - 1:
Peter Rabbit.2018.BDRip.1080p.NNMClub.mkv4.37 GB

Отзывы
Зарегистрируйтесь чтобы добавить комментарий.
Обратная связь
Copyleft ©