↑↓Torrent.by
Поиск
Логин: Регистрация
Пароль: Восстановить пароль
Загрузка...

Уральские пельмени - Азбука Уральских Пельменей - В (2018) WEBRip 720p

Скачать uralskie-pelmeni-azbuka-uralskih-pelmeney-v-2018-webrip-720p.torrent
U Магнитная ссылка Размер: 1.06 GB Раздают: 636 Качают: 91 Добавлен: 2018-06-16 14:56:57
Уральские пельмени - Азбука Уральских Пельменей - В (2018) WEBRip 720p

Название: Уральские пельмени - Азбука Уральских Пельменей - В
Год выхода: 2018
Жанр: ТВ-шоу, юмор, сатира, развлекательный
Режиссер: Анастастия Ширина, Леонид Коновалов
В ролях: Дмитрий Брекоткин, Сергей Ершов, Сергей Исаев, Сергей Калугин, Вячеслав Мясников, Александр Попов, Андрей Рожков, Дмитрий Соколов (V), Максим Ярица, Юлия Михалкова, Илана Юрьева, Ксения Корнева

О фильме: Шоу Уральских пельмений обожают и любят фанаты. Многие из них знают все шутки ребят от А до Я. Но они знают лишь те шутки, которые уже показывали по ТВ. Но сегодня мы представляем новый сборник миниатюр и скетчей. А еще в сборнике то, что осталось за кадром! Цикл выпусков с невошедшими миниатюрами и скетчами. А также самые смешные ляпы и оговорки!

Страна: Россия
Продолжительность: 01:11:40

Файл
Кодек: MPEG-4 AVC
Качество: WEBRip 720p
Видео: 1280x720, 2015 Кбит/с, 25 fps
Звук: AAC-LC, 2 ch, 96 kb/s
[+] MediaInfo
General
Complete name               : Азбука Уральских Пельменей - В (2018).mkv
Format                      : Matroska
Format version              : Version 4 / Version 2
File size                   : 1.06 GiB
Duration                    : 1 h 12 min
Overall bit rate            : 2 111 kb/s
Encoded date                : UTC 2018-06-16 06:51:43
Writing application         : mkvmerge v10.0.0 ('To Drown In You') 32bit
Writing library             : libebml v1.3.4 + libmatroska v1.4.5

Video
ID                          : 1
Format                      : AVC
Format/Info                 : Advanced Video Codec
Format profile              : Main@L3.1
Format settings, CABAC      : Yes
Format settings, ReFrames   : 3 frames
Codec ID                    : V_MPEG4/ISO/AVC
Duration                    : 1 h 12 min
Bit rate                    : 2 015 kb/s
Width                       : 1 280 pixels
Height                      : 720 pixels
Display aspect ratio        : 16:9
Frame rate mode             : Constant
Frame rate                  : 25.000 FPS
Color space                 : YUV
Chroma subsampling          : 4:2:0
Bit depth                   : 8 bits
Scan type                   : Progressive
Bits/(Pixel*Frame)          : 0.087
Stream size                 : 1.02 GiB (95%)
Default                     : Yes
Forced                      : No
Color range                 : Limited
Color primaries             : BT.709
Transfer characteristics    : BT.709
Matrix coefficients         : BT.709

Audio
ID                          : 2
Format                      : AAC
Format/Info                 : Advanced Audio Codec
Format profile              : LC
Codec ID                    : A_AAC
Duration                    : 1 h 12 min
Bit rate                    : 93.6 kb/s
Channel(s)                  : 1 channel
Channel positions           : Front: C
Sampling rate               : 44.1 kHz
Frame rate                  : 43.066 FPS (1024 spf)
Compression mode            : Lossy
Stream size                 : 48.3 MiB (4%)
Default                     : Yes
Forced                      : No




Скриншоты:
[+] Всего файлов в раздаче - 1:
Азбука Уральских Пельменей - В (2018).mkv1.06 GB

Показать еще раздачи по запросу уральские:
Вчера U Уральские пельмени - Пляжный шизон [эфир от 08.02] (2019) WEBRip 720p 1.28 GB ↑ 98 ↓ 26
2019-02-16 U Уральские Пельмени - ЖИ-ШИ прилетели [эфир от 15.02] (2019) WEBRip 1080p 2.40 GB ↑ 247 ↓ 100
2019-02-16 U Уральские Пельмени - ЖИ-ШИ прилетели [эфир от 15.02] (2019) SATRip 923.84 MB ↑ 726 ↓ 119
2019-02-09 U Уральские пельмени - Пляжный шизон [эфир от 08.02] (2019) WEBRip 1080p 2.40 GB ↑ 276 ↓ 128
2019-02-07 U Уральские пельмени - День сырка [эфир от 01.02] (2019) WEBRip 720p 580.59 MB ↑ 111 ↓ 29
2019-02-02 U Уральские пельмени - День сырка [эфир от 01.02] (2019) WEBRip 1080p 2.45 GB ↑ 374 ↓ 184
2019-01-26 U Уральские пельмени - Азбука Уральских пельменей - Е [эфир от 25.01] (2019) WEBRip 720p 431.61 MB ↑ 220 ↓ 37

Отзывы
Зарегистрируйтесь чтобы добавить комментарий.
Обратная связь
Copyleft ©