↑↓Torrent.by
Поиск
Логин: Регистрация
Пароль: Восстановить пароль
Загрузка...

Провал во времени / Retroactive (1997) BDRip 1080p от HDReactor | P, P2, A

Скачать proval-vo-vremeni-retroactive-1997-bdrip-1080p-ot-hdreactor-p-p2-a.torrent
U Магнитная ссылка Размер: 7.76 GB Раздают: 4051 Качают: 102 Добавлен: 2018-06-17 09:38:58
Провал во времени / Retroactive (1997) BDRip 1080p от HDReactor | P, P2, A

Название: Провал во времени
Оригинальное название: Retroactive
Год выпуска: 1997
Жанр:  Фантастика, триллер, криминал, приключения

Режиссер: Луис Морно

В ролях: Джеймс Белуши, Кайли Трэвис, Шэннон Уирри, Фрэнк Уэйли, Джесси Боррего, М. Эммет Уолш, Шерман Ховард, Гай Бойд, Кристина Коггинс, Робби Тибо мл.

О фильме:
Оставшись без автомобиля в результате небольшой аварии, Карен садится в машину к водителю Фрэнку и его жене Райан, чтобы добраться до города. На ближайшей автозаправке Фрэнк ссорится с человеком и пускает в ход оружие, пытаясь убить заодно и всех присутствующих как свидетелей. Карен в испуге бежит к ближайшему зданию и попадает в лабораторию ученого, который проводит эксперимент по перемещению во времени. Карен удается попасть в прошлое, когда эти кровавые события еще не начались. Девушка несколько раз пытается переместиться, чтобы предотвратить трагедию на заправке, но у нее ничего не получается, так как у нее очень маленький временной промежуток - всего 20 минут, а с каждым разом ситуация приобретает все более мрачные обороты...

Выпущено: США, Cohiba Pictures, Orion Pictures Entertainment, Scanbox Entertainment
Продолжительность: 01:30:59
Перевод: Профессиональный многоголосый, профессиональный двухголосый, авторский

Файл
Качество: BDRip (1080p)
Видео: MPEG-4 AVC, 10487 Кбит/с, 1920x816
Аудио #1: AC3, 2.0 ch, 48 kHz, 256 kbps - многоголосый СТС
Аудио #2: AC3, 2.0 ch, 48 kHz, 192 kbps - многоголосый СВ-Кадр (ТВ6)
Аудио #3: AC3, 2.0 ch, 48 kHz, 192 kbps - двухголосый НТВ+
Аудио #4: AC3, 5.1 ch, 48 kHz, 448 kbps - авторский Сергей Визгунов
Аудио #5: AC3, 2.0 ch, 48 kHz, 192 kbps - авторский Юрий Сербин
Аудио #6: AC3, 5.1 ch, 48 kHz, 448 kbps - оригинал (английский)
Субтитры: Русские, английские

Релиз:


[+] МедиаИнфо
Формат                                   : Matroska
Версия формата                           : Version 2
Размер файла                             : 7,76 Гбайт
Продолжительность                        : 1 ч. 30 м.
Общий поток                              : 12,2 Мбит/сек
Название фильма                          : ~V ad~
Дата кодирования                         : UTC 2016-05-20 12:09:42
Программа кодирования                    : mkvmerge v6.5.0 ('Isn't she lovely') built on Oct 20 2013 12:50:05
Библиотека кодирования                   : libebml v1.3.0 + libmatroska v1.4.1
Attachements                             : poster.jpg

Видео
Идентификатор                            : 1
Формат                                   : AVC
Формат/Информация                        : Advanced Video Codec
Профиль формата                          : High@L4.1
Параметр CABAC формата                   : Да
Параметр ReFrames формата                : 5 кадров
Идентификатор кодека                     : V_MPEG4/ISO/AVC
Продолжительность                        : 1 ч. 30 м.
Битрейт                                  : 10,5 Мбит/сек
Ширина                                   : 1920 пикселей
Высота                                   : 816 пикселей
Соотношение сторон                       : 2,35:1
Режим частоты кадров                     : Постоянный
Частота кадров                           : 23,976 кадра/сек
Цветовое пространство                    : YUV
Субдискретизация насыщенности            : 4:2:0
Битовая глубина                          : 8 бит
Тип развёртки                            : Прогрессивная
Бит/(Пиксели*Кадры)                      : 0.279
Размер потока                            : 6,51 Гбайт (84%)
Заголовок                                : ~V~
Библиотека кодирования                   : x264 core 148 r2694 3b70645
Настройки программы                      : cabac=1 / ref=5 / deblock=1:-2:-2 / analyse=0x3:0x133 / me=umh / subme=11 / psy=1 / psy_rd=1.00:0.00 / mixed_ref=1 / me_range=32 / chroma_me=1 / trellis=2 / 8x8dct=1 / cqm=0 / deadzone=21,11 / fast_pskip=0 / chroma_qp_offset=-2 / threads=12 / lookahead_threads=1 / sliced_threads=0 / nr=0 / decimate=0 / interlaced=0 / bluray_compat=0 / constrained_intra=0 / bframes=10 / b_pyramid=2 / b_adapt=2 / b_bias=0 / direct=3 / weightb=1 / open_gop=0 / weightp=2 / keyint=240 / keyint_min=23 / scenecut=40 / intra_refresh=0 / rc=2pass / mbtree=0 / bitrate=10487 / ratetol=1.0 / qcomp=0.60 / qpmin=0 / qpmax=69 / qpstep=4 / cplxblur=20.0 / qblur=0.5 / ip_ratio=1.30 / pb_ratio=1.20 / aq=3:0.80
Язык                                     : English
Default                                  : Да
Forced                                   : Нет

Аудио #1
Идентификатор                            : 2
Формат                                   : AC-3
Формат/Информация                        : Audio Coding 3
Расширение режима                        : CM (complete main)
Параметр Endianness формата              : Big
Идентификатор кодека                     : A_AC3
Продолжительность                        : 1 ч. 30 м.
Вид битрейта                             : Постоянный
Битрейт                                  : 256 Кбит/сек
Каналы                                   : 2 канала
Расположение каналов                     : Front: L R
Частота                                  : 48,0 КГц
Метод сжатия                             : С потерями
Размер потока                            : 167 Мбайт (2%)
Заголовок                                : MVO, СТС
Язык                                     : Russian
Default                                  : Нет
Forced                                   : Нет

Аудио #2
Идентификатор                            : 3
Формат                                   : AC-3
Формат/Информация                        : Audio Coding 3
Расширение режима                        : CM (complete main)
Параметр Endianness формата              : Big
Идентификатор кодека                     : A_AC3
Продолжительность                        : 1 ч. 30 м.
Вид битрейта                             : Постоянный
Битрейт                                  : 192 Кбит/сек
Каналы                                   : 2 канала
Расположение каналов                     : Front: L R
Частота                                  : 48,0 КГц
Метод сжатия                             : С потерями
Размер потока                            : 125 Мбайт (2%)
Заголовок                                : MVO, СВ-Кадр (ТВ6)
Язык                                     : Russian
Default                                  : Нет
Forced                                   : Нет

Аудио #3
Идентификатор                            : 4
Формат                                   : AC-3
Формат/Информация                        : Audio Coding 3
Расширение режима                        : CM (complete main)
Параметр Endianness формата              : Big
Идентификатор кодека                     : A_AC3
Продолжительность                        : 1 ч. 30 м.
Вид битрейта                             : Постоянный
Битрейт                                  : 192 Кбит/сек
Каналы                                   : 2 канала
Расположение каналов                     : Front: L R
Частота                                  : 48,0 КГц
Метод сжатия                             : С потерями
Размер потока                            : 125 Мбайт (2%)
Заголовок                                : DVO НТВ+
Язык                                     : Russian
Default                                  : Нет
Forced                                   : Нет

Аудио #4
Идентификатор                            : 5
Формат                                   : AC-3
Формат/Информация                        : Audio Coding 3
Расширение режима                        : CM (complete main)
Параметр Endianness формата              : Big
Идентификатор кодека                     : A_AC3
Продолжительность                        : 1 ч. 30 м.
Вид битрейта                             : Постоянный
Битрейт                                  : 448 Кбит/сек
Каналы                                   : 6 каналов
Расположение каналов                     : Front: L C R, Side: L R, LFE
Частота                                  : 48,0 КГц
Метод сжатия                             : С потерями
Размер потока                            : 292 Мбайт (4%)
Заголовок                                : AVO, Сергей Визгунов
Язык                                     : Russian
Default                                  : Да
Forced                                   : Да

Аудио #5
Идентификатор                            : 6
Формат                                   : AC-3
Формат/Информация                        : Audio Coding 3
Расширение режима                        : CM (complete main)
Параметр Endianness формата              : Big
Идентификатор кодека                     : A_AC3
Продолжительность                        : 1 ч. 30 м.
Вид битрейта                             : Постоянный
Битрейт                                  : 192 Кбит/сек
Каналы                                   : 2 канала
Расположение каналов                     : Front: L R
Частота                                  : 48,0 КГц
Метод сжатия                             : С потерями
Размер потока                            : 125 Мбайт (2%)
Заголовок                                : AVO,  Юрий Сербин
Язык                                     : Russian
Default                                  : Нет
Forced                                   : Нет

Аудио #6
Идентификатор                            : 7
Формат                                   : AC-3
Формат/Информация                        : Audio Coding 3
Расширение режима                        : CM (complete main)
Параметр Endianness формата              : Big
Идентификатор кодека                     : A_AC3
Продолжительность                        : 1 ч. 30 м.
Вид битрейта                             : Постоянный
Битрейт                                  : 448 Кбит/сек
Каналы                                   : 6 каналов
Расположение каналов                     : Front: L C R, Side: L R, LFE
Частота                                  : 48,0 КГц
Метод сжатия                             : С потерями
Размер потока                            : 292 Мбайт (4%)
Язык                                     : English
Default                                  : Нет
Forced                                   : Нет

Текст #1
Идентификатор                            : 8
Формат                                   : UTF-8
Идентификатор кодека                     : S_TEXT/UTF8
Идентификатор кодека/Информация          : UTF-8 Plain Text
Язык                                     : Russian
Default                                  : Нет
Forced                                   : Нет

Текст #2
Идентификатор                            : 9
Формат                                   : UTF-8
Идентификатор кодека                     : S_TEXT/UTF8
Идентификатор кодека/Информация          : UTF-8 Plain Text
Язык                                     : English
Default                                  : Нет
Forced                                   : Нет

Меню
00:00:00.000                             : :Chapter 01
00:06:46.948                             : :Chapter 02
00:08:56.161                             : :Chapter 03
00:12:21.156                             : :Chapter 04
00:18:19.682                             : :Chapter 05
00:23:28.073                             : :Chapter 06
00:31:17.209                             : :Chapter 07
00:38:54.332                             : :Chapter 08
00:45:28.141                             : :Chapter 09
00:49:14.785                             : :Chapter 10
00:54:08.536                             : :Chapter 11
01:01:34.316                             : :Chapter 12
01:09:13.566                             : :Chapter 13
01:16:24.455                             : :Chapter 14
01:20:28.240                             : :Chapter 15
01:26:57.462                             : :Chapter 16



[+] х264
x264 [info]: frame I:826   Avg QP:16.36  size:138203
x264 [info]: frame P:29162 Avg QP:18.26  size: 79619
x264 [info]: frame B:100892 Avg QP:19.44  size: 46723



Скриншоты:
[+] Всего файлов в раздаче - 1:
Retroactive.1997.BDRip.1080p.HDR.mkv7.76 GB

Отзывы
Зарегистрируйтесь чтобы добавить комментарий.
Обратная связь
Copyleft ©