↑↓Torrent.by
Поиск
Логин: Регистрация
Пароль: Восстановить пароль
Загрузка...

Враги (2007) HDTVRip от Portablius

Скачать vragi-2007-hdtvrip-ot-portablius.torrent
U Магнитная ссылка Размер: 699.17 MB Раздают: 76 Качают: 20 Добавлен: 2018-06-18 10:00:32
Враги (2007) HDTVRip от Portablius

Название: Враги
Год выхода: 2007
Жанр: Драма, военный
Режиссер: Мария Можар
В ролях: Юлия Ауг, Аксель Шрик, Елена Яцко, Геннадий Гарбук, Алеся Пуховая, Зинаида Зубкова, Иван Мацкевич, Денис Тарасенко, Олег Ткачёв, Андрей Гладкий, Вячеслав Павлють, Елена Валюшкина, Ольга Антропова, Виктор Васильев, Иван Латушко, Михаил Волчек

О фильме: 1942. Война ушла далеко на восток. Жизнь районного центра, где обосновалось немецкое руководство, входит в русло "нормы". Немцы учат русский язык, пытаются заигрывать с местными молодками. Женщины стирают немцам, кормят их, а кто-то и заводит с постояльцами отношения. Надо жить дальше... Подросток — сын главной героини — пытается убежать к партизанам, совершает подрыв немецкого эшелона, чтобы его в партизаны приняли. Мальчика ловят. Немцы должны его казнить, чтобы "другим неповадно было". Таков приказ, ослушаться нельзя. Немцы понимают, что казнь ребенка положит конец их спокойной жизни. Особенно хорошо понимает это местный комендант, который находится в близких отношениях с матерью мальчика. Но и нарушить приказ командования он не может.

Страна: Россия, Беларусь
Студия: Беларусфильм, Studio Rock
Продолжительность: 01:18:04
Перевод: Не требуется
Субтитры: Нет

Файл
Кодек: XviD
Качество: HDTVRip
Видео: 720x304 (2.37:1), 25 fps, XviD build 73 ~1050 kbps avg, 0.19 bit/pixel
Звук: 48 kHz, MPEG Layer 3, 2 ch, ~192.00 kbps avg


[+] MediaInfo
General
Complete name               : Vragi.2007.HDTVRip.ot.Portablius.avi
Format                      : AVI
Format/Info                 : Audio Video Interleave
File size                   : 699 MiB
Duration                    : 1 h 18 min
Overall bit rate            : 1 252 kb/s
Writing application         : VirtualDubMod 1.5.10.3 | www.virtualdub-fr.org || (build 2550/release)
Writing library             : VirtualDubMod build 2550/release

Video
ID                          : 0
Format                      : MPEG-4 Visual
Format profile              : Advanced Simple@L5
Format settings, BVOP       : 1
Format settings, QPel       : No
Format settings, GMC        : No warppoints
Format settings, Matrix     : Custom
Codec ID                    : XVID
Codec ID/Hint               : XviD
Duration                    : 1 h 18 min
Bit rate                    : 1 050 kb/s
Width                       : 720 pixels
Height                      : 304 pixels
Display aspect ratio        : 2.35:1
Frame rate                  : 25.000 FPS
Color space                 : YUV
Chroma subsampling          : 4:2:0
Bit depth                   : 8 bits
Scan type                   : Progressive
Compression mode            : Lossy
Bits/(Pixel*Frame)          : 0.192
Stream size                 : 587 MiB (84%)
Writing library             : XviD 73

Audio
ID                          : 1
Format                      : MPEG Audio
Format version              : Version 1
Format profile              : Layer 3
Codec ID                    : 55
Codec ID/Hint               : MP3
Duration                    : 1 h 18 min
Bit rate mode               : Constant
Bit rate                    : 192 kb/s
Channel(s)                  : 2 channels
Sampling rate               : 48.0 kHz
Compression mode            : Lossy
Stream size                 : 107 MiB (15%)
Alignment                   : Aligned on interleaves
Interleave, duration        : 40  ms (1.00 video frame)
Interleave, preload duratio : 504  ms
Writing library             : LAME3.99r
Encoding settings           : -m s -V 4 -q 2 -lowpass 18.6 -b 192




Скриншоты:
[+] Всего файлов в раздаче - 1:
Vragi.2007.HDTVRip.ot.Portablius.avi699.17 MB

Текущая раздача:
ДатаКомментарии    РазмерПиры
2018-06-18 U Враги (2007) HDTVRip от Portablius 699.17 MB ↑ 76 ↓ 20

Показать еще раздачи по запросу враги:
2018-06-19 U Лучшие враги [01-30 из 30] (2014) HDTVRip 13.05 GB ↑ 118 ↓ 90
2018-03-23 U Жадность 3: Старые враги возвращаются / Greed 3: Old Enemies Returning (2017) PC 943.49 MB ↑ 278 ↓ 12
2018-02-18 U Лучшие враги / The Best of Enemies (1961) DVDRip | P, P2 1.46 GB ↑ 52 ↓ 24
2014-11-01 U Лучшие враги [01-30 из 30] (2014) SATRip от Files-x 16.10 GB ↑ 301 ↓ 241
2014-03-14 U Близкие враги / Enemies Closer (2013) BDRip 720p от CINEMANIA | P2, A, L1 5.12 GB ↑ 35 ↓ 26
2014-02-20 U Близкие враги / Enemies Closer (2013) BDRip 720p от CINEMANIA | A, L1 4.86 GB ↑ 77 ↓ 56
2014-02-19 U Близкие враги / Enemies Closer (2013) HDRip | Д. Есарев 1.45 GB ↑ 57 ↓ 34

Отзывы
Зарегистрируйтесь чтобы добавить комментарий.
Обратная связь
Copyleft ©