↑↓Torrent.by
Поиск
Логин: Регистрация
Пароль: Восстановить пароль
Загрузка...

Уральские пельмени - Азбука Уральских Пельменей - Б (2018) WEBRip 720p

Скачать uralskie-pelmeni-azbuka-uralskih-pelmeney-b-2018-webrip-720p.torrent
U Магнитная ссылка Размер: 652.39 MB Раздают: 101 Качают: 40 Добавлен: 2018-06-18 15:24:00
Уральские пельмени - Азбука Уральских Пельменей - Б (2018) WEBRip 720p

Название: Уральские пельмени - Азбука Уральских Пельменей - Б
Год выхода: 2018
Жанр: ТВ-шоу, юмор, сатира, развлекательный
Режиссер: Анастастия Ширина, Леонид Коновалов
В ролях: Дмитрий Брекоткин, Сергей Ершов, Сергей Исаев, Сергей Калугин, Вячеслав Мясников, Александр Попов, Андрей Рожков, Дмитрий Соколов (V), Максим Ярица, Юлия Михалкова, Илана Юрьева, Ксения Корнева

О фильме: Шоу Уральских пельмений обожают и любят фанаты. Многие из них знают все шутки ребят от А до Я. Но они знают лишь те шутки, которые уже показывали по ТВ. Но сегодня мы представляем новый сборник миниатюр и скетчей. А еще в сборнике то, что осталось за кадром! Цикл выпусков с невошедшими миниатюрами и скетчами. А также самые смешные ляпы и оговорки!

Страна: Россия
Продолжительность: 01:11:40

Файл
Кодек: MPEG-4 AVC
Качество: WEBRip 720p
Видео: 1280x720, 1177 Кбит/с, 25 fps
Звук: AAC-LC, 2 ch, 96 kb/s
[+] MediaInfo
General                
Complete name               : Азбука Уральских Пельменей - Б (2018) 720p.mkv
Format                      : Matroska
Format version              : Version 4 / Version 2
File size                   : 652 MiB
Duration                    : 1 h 11 min
Overall bit rate            : 1 273 kb/s
Encoded date                : UTC 2018-06-18 08:40:40
Writing application         : mkvmerge v10.0.0 ('To Drown In You') 32bit
Writing library             : libebml v1.3.4 + libmatroska v1.4.5

Video
ID                          : 1
Format                      : AVC
Format/Info                 : Advanced Video Codec
Format profile              : Main@L3.1
Format settings, CABAC      : Yes
Format settings, ReFrames   : 3 frames
Codec ID                    : V_MPEG4/ISO/AVC
Duration                    : 1 h 11 min
Bit rate                    : 1 177 kb/s
Width                       : 1 280 pixels
Height                      : 720 pixels
Display aspect ratio        : 16:9
Frame rate mode             : Constant
Frame rate                  : 25.000 FPS
Color space                 : YUV
Chroma subsampling          : 4:2:0
Bit depth                   : 8 bits
Scan type                   : Progressive
Bits/(Pixel*Frame)          : 0.051
Stream size                 : 603 MiB (92%)
Default                     : Yes
Forced                      : No
Color range                 : Limited
Color primaries             : BT.709
Transfer characteristics    : BT.709
Matrix coefficients         : BT.709

Audio
ID                          : 2
Format                      : AAC
Format/Info                 : Advanced Audio Codec
Format profile              : LC
Codec ID                    : A_AAC
Duration                    : 1 h 11 min
Bit rate                    : 93.6 kb/s
Channel(s)                  : 1 channel
Channel positions           : Front: C
Sampling rate               : 44.1 kHz
Frame rate                  : 43.066 FPS (1024 spf)
Compression mode            : Lossy
Stream size                 : 48.0 MiB (7%)
Default                     : Yes
Forced                      : No




Скриншоты:
[+] Всего файлов в раздаче - 1:
Азбука Уральских Пельменей - Б (2018) 720p.mkv652.39 MB

Текущая раздача:
ДатаКомментарии    РазмерПиры
2018-06-18 U Уральские пельмени - Азбука Уральских Пельменей - Б (2018) WEBRip 720p 652.39 MB ↑ 101 ↓ 40

Показать еще раздачи по запросу уральские:
2018-06-16 U Уральские пельмени - Азбука Уральских Пельменей - В (2018) WEBRip 720p 1.06 GB ↑ 222 ↓ 76
2018-06-16 U Уральские пельмени - Азбука Уральских Пельменей - В (2018) WEBRip 1080p 2.13 GB ↑ 161 ↓ 97
2018-06-09 U Уральские пельмени - Азбука Уральских Пельменей - Б (2018) WEBRip 1080p 2.07 GB ↑ 273 ↓ 184
2018-06-04 U Уральские пельмени - Азбука Уральских Пельменей - А (2018) WEBRip 1080p 1.20 GB ↑ 290 ↓ 144
2018-05-31 U Уральские пельмени - Унесенные феном (2018) WEBRip 1080p 1.15 GB ↑ 205 ↓ 104
2018-05-20 U Уральские Пельмени - Джентльмены без сдачи [эфир от 18.05] (2018) WEBRip 720p 1.09 GB ↑ 293 ↓ 102
2018-05-19 U Уральские Пельмени - Джентльмены без сдачи (2018) WEBRip 1080p 2.17 GB ↑ 632 ↓ 383

Отзывы
Зарегистрируйтесь чтобы добавить комментарий.
Обратная связь
Copyleft ©