↑↓Torrent.by
Поиск
Логин: Регистрация
Пароль: Восстановить пароль
Загрузка...

Земля: Один потрясающий день / Earth: One Amazing Day (2017) BDRip | D

Скачать zemlya-odin-potryasayuschiy-den-earth-one-amazing-day-2017-bdrip-d.torrent
U Магнитная ссылка Размер: 1.71 GB Раздают: 106 Качают: 25 Добавлен: 2018-06-19 12:26:36
Земля: Один потрясающий день / Earth: One Amazing Day (2017) BDRip | D

Название: Земля: Один потрясающий день
Оригинальное название: Earth: One Amazing Day
Год выпуска: 2017
Жанр:  семейный, документальный
Режиссер: Ричард Дэйл, Фань Лисинь, Питер Веббер
В ролях: Роберт Редфорд (рассказчик, озвучка), Джеки Чан (рассказчик, озвучка)

О фильме: Солнце восходит над Землей, и множество живых существ начинают свой день, полный трогательных, увлекательных и опасных событий. Игуаны спасаются бегством от ядовитых змей, очаровательные панды лакомятся побегами бамбука, жирафы сражаются за сердце «прекрасной дамы»... Жизнь в африканской саванне, на безлюдных островах в Тихом океане, в лесах Азии и на морском дне разворачивается по законам остросюжетного боевика, сентиментальной мелодрамы или головокружительного триллера. Никогда прежде чудеса не были так близко.

MPAA: G - Нет возрастных ограничений

Страна: Великобритания
Студия: Earth Film Productions
Продолжительность:  01:33:46
Перевод: Профессиональный (дублированный) Н.Дроздов

Файл
Качество: BDRip | исх. Earth.One.Amazing.Day.2017.1080p.BDRemux
Формат: AVI
Видео: 704x400 at 23.976 fps, XviD, ~1743 kbps avg
Аудио#1: Russian: 48 kHz, AC3, 3/2 (L,C,R,l,r) + LFE ch, ~384 kbps avg |Дубляж, Н.Дроздов|
Аудио#2: English: 48 kHz, AC3, 3/2 (L,C,R,l,r) + LFE ch, ~384 kbps avg |отдельно|
Субтитры: Russian, English

***Релиз: tеko.


[+] MediaInfo
Общее
Полное имя                               : Earth.One.Amazing.Day.2017.bdrip_[1.46].avi
Формат                                   : AVI
Формат/Информация                        : Audio Video Interleave
Размер файла                             : 1,46 Гбайт
Продолжительность                        : 1 ч. 33 м.
Общий поток                              : 2224 Кбит/сек
Программа кодирования                    : VirtualDubMod 1.5.10.3 | www.virtualdub-fr.org || (build 2550/release)
Библиотека кодирования                   : VirtualDubMod build 2550/release

Видео
Идентификатор                            : 0
Формат                                   : MPEG-4 Visual
Профиль формата                          : Advanced Simple@L5
Параметр BVOP формата                    : 2
Параметр QPel формата                    : Нет
Параметр GMC формата                     : Без точки перехода
Параметр матрицы формата                 : Выборочная
Идентификатор кодека                     : XVID
Идентификатор кодека/Подсказка           : XviD
Продолжительность                        : 1 ч. 33 м.
Битрейт                                  : 1743 Кбит/сек
Ширина                                   : 704 пикселя
Высота                                   : 400 пикселей
Соотношение сторон                       : 16:9
Частота кадров                           : 23,976 кадра/сек
Цветовое пространство                    : YUV
Субдискретизация насыщенности            : 4:2:0
Битовая глубина                          : 8 бит
Тип развёртки                            : Прогрессивная
Метод сжатия                             : С потерями
Бит/(Пиксели*Кадры)                      : 0.258
Размер потока                            : 1,14 Гбайт (78%)
Библиотека кодирования                   : XviD 73

Аудио
Идентификатор                            : 1
Формат                                   : AC-3
Формат/Информация                        : Audio Coding 3
Расширение режима                        : CM (complete main)
Параметр Endianness формата              : Big
Идентификатор кодека                     : 2000
Продолжительность                        : 1 ч. 33 м.
Вид битрейта                             : Постоянный
Битрейт                                  : 384 Кбит/сек
Каналы                                   : 6 каналов
Расположение каналов                     : Front: L C R, Side: L R, LFE
Частота                                  : 48,0 КГц
Битовая глубина                          : 16 бит
Метод сжатия                             : С потерями
Размер потока                            : 258 Мбайт (17%)
Выравнивание                             : Разделение по промежуткам



Скриншоты:
[+] Всего файлов в раздаче - 4:
Earth.One.Amazing.Day.2017.bdrip_[1.46].avi1.46 GB
Earth.One.Amazing.Day.2017.bdrip_[1.46]_eng.ac3257.57 MB
Earth.One.Amazing.Day.2017.bdrip_[1.46]sub.rus.srt55.38 kB
Earth.One.Amazing.Day.2017.bdrip_[1.46].sub.eng.srt40.06 kB

Текущая раздача:
ДатаКомментарии    РазмерПиры
2018-06-19 U Земля: Один потрясающий день / Earth: One Amazing Day (2017) BDRip | D 1.71 GB ↑ 106 ↓ 25

Показать еще раздачи по запросу земля:
Сегодня U Моя чистая земля / My Pure Land (2017) HDRip-AVC | L1 1.49 GB ↑ 51 ↓ 19
2018-06-30 U Хочелага, земля душ / Hochelaga, Terre des Âmes (2017) WEBRip 720p | GreenРай Studio 2.45 GB ↑ 53 ↓ 16
2018-06-30 U Хочелага, земля душ / Hochelaga, Terre des Âmes (2017) WEBRip 1080p | GreenРай Studio 3.20 GB ↑ 14 ↓ 14
2018-06-30 U Хочелага, земля душ / Hochelaga, Terre des Âmes (2017) WEBRip | GreenРай Studio 1.37 GB ↑ 42 ↓ 20
2018-06-21 U Выжженная земля / Scorched Earth (2018) BDRip от MegaPeer | P 1.46 GB ↑ 51 ↓ 34
2018-06-21 U Выжженная земля / Scorched Earth (2018) BDRip от MegaPeer | P 745.51 MB ↑ 27 ↓ 29
2018-06-21 U Выжженная земля / Scorched Earth (2018) BDRip 1080p | Jaskier 8.71 GB ↑ 36 ↓ 46

Отзывы
Зарегистрируйтесь чтобы добавить комментарий.
Обратная связь
Copyleft ©