↑↓Torrent.by
Поиск
Логин: Регистрация
Пароль: Восстановить пароль
Загрузка...

Монстры на острове / Friends: Mononokeshima no Naki (2011) WEBRip 1080p | D

Скачать monstry-na-ostrove-friends-mononokeshima-no-naki-2011-webrip-1080p-d.torrent
U Магнитная ссылка Размер: 2.72 GB Раздают: 82 Качают: 49 Добавлен: 2018-06-24 09:48:54
Монстры на острове / Friends: Mononokeshima no Naki (2011) WEBRip 1080p | D

Название: Монстры на острове
Оригинальное название: Friends: Mononokeshima no Naki
Год выхода: 2011
Жанр: мультфильм, фэнтези, приключения
Режиссер: Такаши Ямадзаки
В ролях: Андрей Рожков, Александр Ревва, Сергей Нетиевский и др.

О фильме:
Далеко в океане, покрытый густым туманом и похожий на привидение, спрятался Остров. По легенде, на нем живут монстры, которые охраняют растущие там чудесные ягоды и грибы. Приближаться к Острову запрещено… Однажды мальчик из племени случайно оказался на Острове и столкнулся лицом к лицу со всем таинственным, что на нем было. Поначалу монстры приняли его дружелюбно, но мальчик оказался настоящим чертенком. Монстры, устав от его выходок, решили отправить его обратно. Попадет ли он обратно домой и сохранит ли тайну Острова? Разгадка наступит в самом конце…

Страна: Япония, Канада
Продолжительность: 01:27:29
Перевод: русский, профессиональный (полное дублирование)

Файл
Кодек: H264
Качество: WEBRip
Видео: 4 002 kb/s, high L4.0, yuv420p, 1888x1072, 24fps
Звук: rus, ac3, 48000 Hz, 5.1, 448 kb/s
Субтитры: нет


[+] MediaInfo
General
Unique ID                      : 192517335556715386598117975443690190515 (0x90D57D7991709BD0944A4AC1793776B3)
Complete name                  : D:Monstri na ostrove.2011.WEBRip.1080p.D.mkv
Format                         : Matroska
Format version                 : Version 4 / Version 2
File size                      : 2.72 GiB
Duration                       : 1 h 27 min
Overall bit rate mode          : Variable
Overall bit rate               : 4 452 kb/s
Encoded date                   : UTC 2018-06-23 15:37:15
Writing application            : mkvmerge v8.3.0 ('Over the Horizon') 64bit
Writing library                : libebml v1.3.1 + libmatroska v1.4.2

Video
ID                             : 1
Format                         : AVC
Format/Info                    : Advanced Video Codec
Format profile                 : High@L4
Format settings                : CABAC / 3 Ref Frames
Format settings, CABAC         : Yes
Format settings, ReFrames      : 3 frames
Codec ID                       : V_MPEG4/ISO/AVC
Duration                       : 1 h 27 min
Bit rate mode                  : Variable
Bit rate                       : 4 002 kb/s
Maximum bit rate               : 40.0 Mb/s
Width                          : 1 888 pixels
Height                         : 1 072 pixels
Display aspect ratio           : 16:9
Frame rate mode                : Constant
Frame rate                     : 24.000 FPS
Color space                    : YUV
Chroma subsampling             : 4:2:0
Bit depth                      : 8 bits
Scan type                      : Progressive
Bits/(Pixel*Frame)             : 0.082
Stream size                    : 2.45 GiB (90%)
Default                        : Yes
Forced                         : No
Color range                    : Limited
Color primaries                : BT.709
Transfer characteristics       : BT.709
Matrix coefficients            : BT.709

Audio
ID                             : 2
Format                         : AC-3
Format/Info                    : Audio Coding 3
Codec ID                       : A_AC3
Duration                       : 1 h 27 min
Bit rate mode                  : Constant
Bit rate                       : 448 kb/s
Channel(s)                     : 6 channels
Channel positions              : Front: L C R, Side: L R, LFE
Sampling rate                  : 48.0 kHz
Frame rate                     : 31.250 FPS (1536 SPF)
Bit depth                      : 16 bits
Compression mode               : Lossy
Stream size                    : 280 MiB (10%)
Title                          : Профессиональный (полное дублирование)
Language                       : Russian
Service kind                   : Complete Main
Default                        : Yes
Forced                         : No



Скриншоты:
[+] Всего файлов в раздаче - 1:
Monstri na ostrove.2011.WEBRip.1080p.D.mkv2.72 GB

Текущая раздача:
ДатаКомментарии    РазмерПиры
2018-06-24 U Монстры на острове / Friends: Mononokeshima no Naki (2011) WEBRip 1080p | D 2.72 GB ↑ 82 ↓ 49

Показать еще раздачи по запросу монстры:
2018-04-02 U Монстры на свободе / Monsters at Large (2018) WEB-DLRip | HDrezka Studio 1.46 GB ↑ 112 ↓ 53
2018-03-22 U Монстры на свободе / Monsters at Large (2018) WEBRip 720p | L2 2.81 GB ↑ 32 ↓ 12
2018-03-22 U Монстры на свободе / Monsters at Large (2018) WEBRip | L2 1.34 GB ↑ 33 ↓ 7
2018-02-18 U Мы – монстры / Happy Family (2017) BDRip от MegaPeer | iTunes 1.42 GB ↑ 495 ↓ 122
2018-01-15 U Монстры корпорации / Corporate [01x01-04 из 13] (2017) HDTVRip 720p | ColdFilm 2.23 GB ↑ 49 ↓ 21
2018-01-13 U Монстры корпорации / Corporate [01x01-02 из 13] (2017) HDTVRip 720p | ColdFilm 993.26 MB ↑ 29 ↓ 11
2015-12-24 U Монстры на каникулах 2 / Hotel Transylvania 2 (2015) WEB-DL 1080p | iTunes 3К3.69 GB ↑ 793 ↓ 397

Отзывы
Зарегистрируйтесь чтобы добавить комментарий.
Обратная связь
Copyleft ©