↑↓Torrent.by
Поиск
Логин: Регистрация
Пароль: Восстановить пароль
Загрузка...

Твоё имя / Kimi no na wa (2016) BDRip 1080p от New-Team & qqss44 | P

Скачать tvoe-imya-kimi-no-na-wa-2016-bdrip-1080p-ot-new-team-qqss44-p.torrent
U Магнитная ссылка Размер: 4.36 GB Раздают: 103 Качают: 5 Добавлен: 2018-06-26 05:28:15
Твоё имя / Kimi no na wa (2016) BDRip 1080p от New-Team & qqss44 | P

Мы "ВКОНТАКТЕ"
Информация о фильме
Название: Твоё имя
Оригинальное название: Kimi no Na wa / Your name
Год выпуска: 2016
Жанр: аниме, мультфильм, фэнтези, драма, мелодрама
Режиссер: Макото Синкай
В ролях: Рюносукэ Камики, Монэ Камисираиси, Рё Нарита, Аои Юки, Симадзаки Нобунага, Каито Исикава, Канон Тани, Масаки Тэрасома, Саяка Охара, Кадзухико Иноуэ

О фильме:
История о парне из Токио и девушке из провинции, которые обнаруживают, что между ними существует странная и необъяснимая связь. Во сне они меняются телами и проживают жизни друг друга. Но однажды эта способность исчезает так же внезапно, как появилась. Таки решает во что бы то ни стало отыскать Мицуху, но способны ли они узнать друг друга в реальной жизни?

Страна: Япония
Продолжительность: 01:46:36
Перевод: Профессиональный (многоголосый, закадровый) | AlexFilm

Файл
Формат: MKV, BDRip 1080p
Видео: MPEG-4 AVC, 5400 Кбит/с, 1920x1080
Aудио#1: [RUS] AC3 | 48 KHz | 5.1 (Front: L С R Side: L R) + LFE | ~448 kbps
Релиз от:


[+] МИ

Общее
Уникальный идентификатор                 : 231788409365418313838907673221579447445 (0xAE60D2E6E86AA8568EEE8B4F75589C95)
Полное имя                               : X:�0000Kimi.no.na.wa.aka.Your.Name.(2016).BDRip.1080p.(qqss44).mkv
Формат                                   : Matroska
Версия формата                           : Version 2
Размер файла                             : 4,36 Гбайт
Продолжительность                        : 1 ч. 46 м.
Общий поток                              : 5851 Кбит/сек
Дата кодирования                         : UTC 2017-10-15 20:02:12
Программа кодирования                    : mkvmerge v5.8.0 ('No Sleep / Pillow') built on Sep  2 2012 15:37:04
Библиотека кодирования                   : libebml v1.2.3 + libmatroska v1.3.0

Видео
Идентификатор                            : 1
Формат                                   : AVC
Формат/Информация                        : Advanced Video Codec
Профиль формата                          : High@L4.1
Параметр CABAC формата                   : Да
Параметр ReFrames формата                : 4 кадра
Идентификатор кодека                     : V_MPEG4/ISO/AVC
Продолжительность                        : 1 ч. 46 м.
Битрейт                                  : 5400 Кбит/сек
Ширина                                   : 1920 пикселей
Высота                                   : 1080 пикселей
Соотношение сторон                       : 16:9
Режим частоты кадров                     : Постоянный
Частота кадров                           : 23,976 (24000/1001) кадра/сек
Цветовое пространство                    : YUV
Субдискретизация насыщенности            : 4:2:0
Битовая глубина                          : 8 бит
Тип развёртки                            : Прогрессивная
Бит/(Пиксели*Кадры)                      : 0.109
Размер потока                            : 3,94 Гбайт (90%)
Библиотека кодирования                   : x264 core 152 r2851kMod ba24899
Настройки программы                      : cabac=1 / ref=4 / deblock=1:0:0 / analyse=0x3:0x113 / me=umh / subme=11 / psy=0 / mixed_ref=1 / me_range=32 / chroma_me=1 / trellis=2 / 8x8dct=1 / cqm=0 / deadzone=21,11 / fast_pskip=0 / chroma_qp_offset=0 / threads=12 / lookahead_threads=2 / sliced_threads=0 / nr=0 / decimate=0 / interlaced=0 / bluray_compat=0 / constrained_intra=0 / bframes=8 / b_pyramid=2 / b_adapt=2 / b_bias=0 / direct=3 / weightb=1 / open_gop=0 / weightp=2 / keyint=240 / keyint_min=23 / scenecut=40 / intra_refresh=0 / rc_lookahead=40 / rc=2pass / mbtree=0 / bitrate=5400 / ratetol=1.0 / qcomp=0.60 / qpmin=0 / qpmax=69 / qpstep=4 / cplxblur=20.0 / qblur=0.5 / vbv_maxrate=50000 / vbv_bufsize=62500 / nal_hrd=none / filler=0 / ip_ratio=1.40 / pb_ratio=1.30 / aq=3:1.00
Язык                                     : English
Default                                  : Да
Forced                                   : Нет

Аудио
Идентификатор                            : 2
Формат                                   : AC-3
Формат/Информация                        : Audio Coding 3
Расширение режима                        : CM (complete main)
Параметр Endianness формата              : Big
Идентификатор кодека                     : A_AC3
Продолжительность                        : 1 ч. 46 м.
Вид битрейта                             : Постоянный
Битрейт                                  : 448 Кбит/сек
Каналы                                   : 6 каналов
Расположение каналов                     : Front: L C R, Side: L R, LFE
Частота                                  : 48,0 КГц
Частота кадров                           : 31,250 кадров/сек (1536 spf)
Метод сжатия                             : С потерями
Размер потока                            : 342 Мбайт (8%)
Язык                                     : Russian
Default                                  : Да
Forced                                   : Нет

Меню
00:00:00.000                             : :Echo
00:01:34.094                             : :Opening
00:03:21.868                             : :Beginning
00:05:13.271                             : :Miyamizu Family
00:08:37.308                             : :Who Are You?
00:12:11.314                             : :Kumihimo
00:14:32.371                             : :Kuchikamizake
00:17:22.500                             : :Tokyo
00:22:57.918                             : :Okudera-senpai
00:27:05.624                             : :Accident 1
00:28:16.570                             : :Accident 2
00:29:53.542                             : :Day by Day
00:32:42.836                             : :Object of Worship
00:37:26.995                             : :Date
00:41:57.765                             : :Autumn Festival
00:44:30.334                             : :Disconnection
00:45:54.001                             : :Searching
00:48:28.656                             : :Itomori Town that Disappeared
00:53:01.387                             : :Pursuit
00:56:53.869                             : :Recollection
01:03:42.318                             : :Replay
01:06:03.793                             : :Strategy Meeting
01:09:44.931                             : :Premonition
01:12:41.816                             : :Chance Meeting
01:16:42.473                             : :Twilight
01:21:21.710                             : :Beautiful, Struggling
01:29:12.806                             : :Love
01:32:51.858                             : :Just a Little Longer
01:37:01.733                             : :Your Name.
01:41:19.615                             : :Staff Roll




Скриншоты:
[+] Всего файлов в раздаче - 1:
Kimi.no.na.wa.aka.Your.Name.(2016).BDRip.1080p.(qqss44).mkv4.36 GB

Текущая раздача:
ДатаКомментарии    РазмерПиры
2018-06-26 U Твоё имя / Kimi no na wa (2016) BDRip 1080p от New-Team & qqss44 | P 4.36 GB ↑ 103 ↓ 5

Похожие раздачи по запросу - kimi:
2018-06-30 U Твоё имя / Kimi no Na wa / Your Name (2016) BDRip-AVC от OlLanDGroup | P 2К1.49 GB ↑ 35 ↓ 2
2017-10-13 U Твоё имя / Kimi no na wa (2016) BDRip 1080p | AlexFilm 13.38 GB ↑ 502 ↓ 51
2017-10-13 U Твоё имя / Kimi no Na wa (2016) BDRip-HEVC 1080p | P, L2 1К1.44 GB ↑ 1636 ↓ 91
2017-09-29 U Твоё имя / Kimi no na wa (2016) BDRip 720p от NNNB | P 5.20 GB ↑ 181 ↓ 31
2013-11-12 U Ты научил меня важным вещам / Taisetsu na Koto wa Subete Kimi ga Oshiete Kureta [01-10 из 10] (2011) HDTVRip 7.03 GB ↑ 13 ↓ 10
2013-10-30 U Город, в котором ты живешь / Kimi no Iru Machi [01-12 из 12] (2013) HDTV 720p | L2 2.45 GB ↑ 31 ↓ 12

Отзывы
Зарегистрируйтесь чтобы добавить комментарий.
Обратная связь
Copyleft ©