↑↓Torrent.by
Поиск
Логин: Регистрация
Пароль: Восстановить пароль
Загрузка...

Тихое место / A Quiet Place (2018) WEB-DL 1080p от ExKinoRay | HDrezka Studio

Скачать tihoe-mesto-a-quiet-place-2018-web-dl-1080p-ot-exkinoray-hdrezka-studio.torrent
U Магнитная ссылка Размер: 7.14 GB Раздают: 110 Качают: 114 Добавлен: 2018-06-26 17:31:08
Тихое место / A Quiet Place (2018) WEB-DL 1080p от ExKinoRay | HDrezka Studio

Название: Тихое место
Оригинальное название: A Quiet Place
Год выхода: 2018
Жанр: Ужасы, триллер, драма
Режиссер: Джон Красински
В ролях: Эмили Блант, Джон Красински, Ноа Джуп, Милли Симмондс, Леон Рассом, Кейд Вудворд, Дорис МакКарти

О фильме: История одной семьи, которая проживает в небольшой уединённой ферме в далёкой американской глубинке. У главных героев есть двое детей. Казалось бы, жизнь этих людей совершенно не отличается от жизни других таких семей. Но главные герои живут в доме, который наполнен ужасными монстрами, реагирующими на любой звук. Герои разучили целый комплекс специальных жестов, которые помогают им общаться друг с другом, не издавая ни единого звука. Кроме того, каждый из членов семьи должен очень тихо передвигаться по всей территории дома, чтобы опасные существа не заметили их. Однако дом, где живут маленькие дети, не может быть самым тихим местом на земле.

Страна: США
Студия: Platinum Dunes
Продолжительность: 01:30:14
Перевод: Профессиональный многоголосый | HDRezka Studio

Качество: WEB-DL 1080p | AMAZON Version
Видео: MPEG-4 AVC, 1920x800, 10000 Kbit/s, 23.976 fps
Звук:
Аудио #01: 48 kHz, AC3, 5.1, 384 Kbps | HDRezka Studio | RUS |
Аудио #02: 48 kHz, E-AC3, 5.1, 640 Kbps | Оригинал |  ENG |
Аудио #03: 48 kHz, AC3, 5.1, 640 Kbps | Оригинал |  ENG |
Аудио #04: 48 kHz, AC3, 5.1, 384 Kbps | Оригинал |  ENG |
Субтитры: Русские (forced, full), английские

Релиз: Автор релиза:


[+] MI
General
Unique ID                   : 201712847466064325567363876113979044945 (0x97C07B37260A866BA50BEF3183947451)
Complete name               : D:Video111A Quiet Place.2018.AMZN.WEB-DL.1080p.ExKinoRay.mkv
Format                      : Matroska
Format version              : Version 4 / Version 2
File size                   : 7.14 GiB
Duration                    : 1 h 30 min
Overall bit rate            : 11.3 Mb/s
Movie name                  : A Quiet Place 2018 from ExKinoRay
Encoded date                : UTC 2018-06-26 12:29:50
Writing application         : mkvmerge v7.3.0 ('Nouages') 64bit built on Oct 22 2014 18:53:34
Writing library             : libebml v1.3.0 + libmatroska v1.4.1

Video
ID                          : 1
Format                      : AVC
Format/Info                 : Advanced Video Codec
Format profile              : High@L4
Format settings             : CABAC / 4 Ref Frames
Format settings, CABAC      : Yes
Format settings, ReFrames   : 4 frames
Codec ID                    : V_MPEG4/ISO/AVC
Duration                    : 1 h 30 min
Bit rate mode               : Constant
Bit rate                    : 10 000 kb/s
Width                       : 1 920 pixels
Height                      : 800 pixels
Display aspect ratio        : 2.40:1
Frame rate mode             : Constant
Frame rate                  : 23.976 (24000/1001) FPS
Color space                 : YUV
Chroma subsampling          : 4:2:0
Bit depth                   : 8 bits
Scan type                   : Progressive
Bits/(Pixel*Frame)          : 0.272
Stream size                 : 6.09 GiB (85%)
Title                       : Amazon
Language                    : English
Default                     : Yes
Forced                      : No
Color range                 : Limited
Color primaries             : BT.709
Transfer characteristics    : BT.709
Matrix coefficients         : BT.709

Audio #1
ID                          : 2
Format                      : AC-3
Format/Info                 : Audio Coding 3
Codec ID                    : A_AC3
Duration                    : 1 h 30 min
Bit rate mode               : Constant
Bit rate                    : 384 kb/s
Channel(s)                  : 6 channels
Channel positions           : Front: L C R, Side: L R, LFE
Sampling rate               : 48.0 kHz
Frame rate                  : 31.250 FPS (1536 SPF)
Bit depth                   : 16 bits
Compression mode            : Lossy
Stream size                 : 248 MiB (3%)
Title                       : MVO [HDRezka Studio]
Language                    : Russian
Service kind                : Complete Main
Default                     : Yes
Forced                      : Yes

Audio #2
ID                          : 3
Format                      : AC-3
Format/Info                 : Audio Coding 3
Codec ID                    : A_AC3
Duration                    : 1 h 30 min
Bit rate mode               : Constant
Bit rate                    : 640 kb/s
Channel(s)                  : 6 channels
Channel positions           : Front: L C R, Side: L R, LFE
Sampling rate               : 48.0 kHz
Frame rate                  : 31.250 FPS (1536 SPF)
Bit depth                   : 16 bits
Compression mode            : Lossy
Stream size                 : 413 MiB (6%)
Title                       : AMAZON Coded
Language                    : English
Service kind                : Complete Main
Default                     : No
Forced                      : No

Audio #3
ID                          : 4
Format                      : E-AC-3
Format/Info                 : Enhanced Audio Coding 3
Codec ID                    : A_EAC3
Duration                    : 1 h 30 min
Bit rate mode               : Constant
Bit rate                    : 256 kb/s
Channel(s)                  : 6 channels
Channel positions           : Front: L C R, Side: L R, LFE
Sampling rate               : 48.0 kHz
Frame rate                  : 187.500 FPS (256 SPF)
Compression mode            : Lossy
Stream size                 : 165 MiB (2%)
Title                       : Original [AMAZON]
Language                    : English
Service kind                : Complete Main
Default                     : No
Forced                      : No

Audio #4
ID                          : 5
Format                      : AC-3
Format/Info                 : Audio Coding 3
Codec ID                    : A_AC3
Duration                    : 1 h 30 min
Bit rate mode               : Constant
Bit rate                    : 384 kb/s
Channel(s)                  : 6 channels
Channel positions           : Front: L C R, Side: L R, LFE
Sampling rate               : 48.0 kHz
Frame rate                  : 31.250 FPS (1536 SPF)
Bit depth                   : 16 bits
Compression mode            : Lossy
Stream size                 : 248 MiB (3%)
Title                       : Original
Language                    : English
Service kind                : Complete Main
Default                     : No
Forced                      : No

Text #1
ID                          : 6
Format                      : UTF-8
Codec ID                    : S_TEXT/UTF8
Codec ID/Info               : UTF-8 Plain Text
Duration                    : 1 h 19 min
Bit rate                    : 6 b/s
Count of elements           : 94
Stream size                 : 3.68 KiB (0%)
Title                       : Forced
Language                    : Russian
Default                     : Yes
Forced                      : Yes

Text #2
ID                          : 7
Format                      : UTF-8
Codec ID                    : S_TEXT/UTF8
Codec ID/Info               : UTF-8 Plain Text
Duration                    : 1 h 19 min
Bit rate                    : 9 b/s
Count of elements           : 138
Stream size                 : 5.41 KiB (0%)
Title                       : Full
Language                    : Russian
Default                     : No
Forced                      : No

Text #3
ID                          : 8
Format                      : UTF-8
Codec ID                    : S_TEXT/UTF8
Codec ID/Info               : UTF-8 Plain Text
Duration                    : 1 h 22 min
Bit rate                    : 6 b/s
Count of elements           : 235
Stream size                 : 4.00 KiB (0%)
Title                       : AMZN
Language                    : English
Default                     : No
Forced                      : No

Text #4
ID                          : 9
Format                      : UTF-8
Codec ID                    : S_TEXT/UTF8
Codec ID/Info               : UTF-8 Plain Text
Duration                    : 1 h 22 min
Bit rate                    : 6 b/s
Count of elements           : 235
Stream size                 : 4.00 KiB (0%)
Title                       : AMZN
Language                    : English
Default                     : No
Forced                      : No

Text #5
ID                          : 10
Format                      : UTF-8
Codec ID                    : S_TEXT/UTF8
Codec ID/Info               : UTF-8 Plain Text
Duration                    : 1 h 22 min
Bit rate                    : 6 b/s
Count of elements           : 235
Stream size                 : 4.00 KiB (0%)
Title                       : AMZN
Language                    : English
Default                     : No
Forced                      : No

Text #6
ID                          : 11
Format                      : UTF-8
Codec ID                    : S_TEXT/UTF8
Codec ID/Info               : UTF-8 Plain Text
Duration                    : 1 h 22 min
Bit rate                    : 6 b/s
Count of elements           : 235
Stream size                 : 4.00 KiB (0%)
Title                       : AMZN
Language                    : English
Default                     : No
Forced                      : No

Text #7
ID                          : 12
Format                      : UTF-8
Codec ID                    : S_TEXT/UTF8
Codec ID/Info               : UTF-8 Plain Text
Duration                    : 1 h 22 min
Bit rate                    : 6 b/s
Count of elements           : 235
Stream size                 : 4.07 KiB (0%)
Title                       : SDH
Language                    : English
Default                     : No
Forced                      : No

Menu
00:00:00.000                : en:1
00:10:17.000                : en:2
00:14:36.000                : en:3
00:21:50.000                : en:4
00:25:07.000                : en:5
00:31:02.000                : en:6
00:36:20.000                : en:7
00:43:43.000                : en:8
00:47:39.000                : en:9
00:53:44.000                : en:10
01:00:27.000                : en:11
01:05:50.000                : en:12
01:10:52.000                : en:13
01:15:23.000                : en:14
01:23:41.000                : en:15



Скриншоты:
[+] Всего файлов в раздаче - 1:
A Quiet Place.2018.AMZN.WEB-DL.1080p.ExKinoRay.mkv7.14 GB

Текущая раздача:
ДатаКомментарии    РазмерПиры
2018-06-26 U Тихое место / A Quiet Place (2018) WEB-DL 1080p от ExKinoRay | HDrezka Studio 7.14 GB ↑ 110 ↓ 114

Показать еще раздачи по запросу тихое:
2018-08-10 U Тихое место / A Quiet Place (2018) BDRip-AVC от ExKinoRay | Лицензия 1.45 GB ↑ 30 ↓ 4
2018-07-31 U Тихое место / A Quiet Place (2018) BDRip от HQ-ViDEO | D 1.45 GB ↑ 55 ↓ 6
2018-07-30 U Тихое место / A Quiet place (2018) BDRip 720p от Scarabey | Лицензия, P 3.73 GB ↑ 20 ↓ 13
2018-07-29 U Тихое место / A Quiet place (2018) HDRip от Scarabey | Лицензия 1.44 GB ↑ 777 ↓ 29
2018-07-28 U Тихое место / A Quiet Place (2018) BDRip-AVC от OlLanDGroup | D, P | Лицензия 1.68 GB ↑ 57 ↓ 24
2018-07-28 U Тихое место / A Quiet Place (2018) BDRip от MegaPeer | Лицензия 2К746.96 MB ↑ 58 ↓ 25
2018-07-28 U Тихое место / A Quiet Place (2018) BDRemux 1080p от ExKinoRay | D, P | Лицензия 18.87 GB ↑ 40 ↓ 45

Отзывы
Зарегистрируйтесь чтобы добавить комментарий.
Обратная связь
Copyleft ©