↑↓Torrent.by
Поиск
Логин: Регистрация
Пароль: Восстановить пароль
Загрузка...

Дорога на Эльдорадо / The Road to El Dorado (2000) WEB-DL 1080p | D, P, A

Скачать doroga-na-eldorado-the-road-to-el-dorado-2000-web-dl-1080p-d-p-a.torrent
U Магнитная ссылка Размер: 6.60 GB Раздают: 56 Качают: 12 Добавлен: 2018-06-27 05:41:01
Дорога на Эльдорадо / The Road to El Dorado (2000) WEB-DL 1080p | D, P, A

Название: Дорога на Эльдорадо
Оригинальное название: The Road to El Dorado
Год выхода: 2000
Жанр: мультфильм, мелодрама, комедия, приключения, семейный
Режиссер: Бибо Бержерон, Дон Пол, Джеффри Катценберг
В ролях: Кевин Клайн, Кеннет Брана, Рози Перес, Арманд Ассанте, Эдвард Джеймс Олмос, Джим Каммингс, Фрэнк Уэлкер, Тобин Белл, Дункан Майорибэнкс, Элайджа Чианг

О фильме:
Тульо и Мигель, герои этой полнометражной мультипликационной картины, предпочитают не зарабатывать деньги тяжелым трудом. Эти два отпетых мошенника обожают, когда золотишко само идет к ним в руки. Случилось так, что этим проходимцам крупно повезло.

Им посчастливилось найти таинственную карту, на которой обозначен величественный Город Золота, мифический Эльдорадо. Вместе со знаменитым конкистадором Эрнаном Кортесом приятели отправляются в рискованное путешествием за сокровищами к берегам далекой Америки.

Страна: США
Студия: DreamWorks SKG
Продолжительность: 01:29:25
Перевод: Профессиональный (дублированный) AB Video/ОРТ + Профессиональный (дублированный) Пифагор + Профессиональный (многоголосый, закадровый) Премьер Мультимедия + Профессиональный (многоголосый, закадровый) Премьер Видео Фильм + Профессиональный (многоголосый, закадровый) ? + Авторский (одноголосый, закадровый) С.Визгунов + Авторский (одноголосый, закадровый) Ю.Живов + Профессиональный (многоголосый, закадровый) Інтер + Профессиональный (многоголосый, закадровый) Н

Релиз:

Файл
Качество: WEB-DL 1080p
Формат: Matroska
Видео: 1920x1080 at 23.976 fps, x264@L4, ~6461 kbps avg
Аудио#1: Russian: 48 kHz, AC3, 2/0 (L,R) ch, ~192 kbps avg |Дубляж, AB Video/ОРТ|
Аудио#2: Russian: 48 kHz, AC3, 3/2 (L,C,R,l,r) + LFE ch, ~448 kbps avg |Дубляж, Пифагор|
Аудио#3: Russian: 48 kHz, AC3, 2/0 (L,R) ch, ~192 kbps avg |Многоголосый закадровый, Премьер Мультимедия|
Аудио#4: Russian: 48 kHz, AC3, 3/2 (L,C,R,l,r) + LFE ch, ~448 kbps avg |Многоголосый закадровый, Премьер Видео Фильм|
Аудио#5: Russian: 48 kHz, AC3, 3/2 (L,C,R,l,r) + LFE ch, ~384 kbps avg |Многоголосый закадровый, ?|
Аудио#6: Russian: 48 kHz, AC3, 3/2 (L,C,R,l,r) + LFE ch, ~448 kbps avg |Авторский, С.Визгунов|
Аудио#7: Russian: 48 kHz, AC3, 3/2 (L,C,R,l,r) + LFE ch, ~448 kbps avg |Авторский, Ю.Живов|
Аудио#8: Ukrainian: 48 kHz, AC3, 2/0 (L,R) ch, ~192 kbps avg |Многоголосый закадровый, Інтер|
Аудио#9: Ukrainian: 48 kHz, AAC3, 2/0 (L,R) ch, ~192 kbps avg |Многоголосый закадровый, Н|
Аудио#10: English: 48 kHz, AC3, 3/2 (L,C,R,l,r) + LFE ch, ~640 kbps avg
Аудио#11: Russian: 48 kHz, AAC, 2/0 (L,R) ch, ~160 kbps avg |Commentary Bibo Bergeron & Don Paul|
Аудио#12: English: 48 kHz, AAC, 2/0 (L,R) ch, ~160 kbps avg |Commentary Bibo Bergeron & Don Paul|
Субтитры: Russian (Full), English (SDH)

***Сохранены и подписаны оригинальные главы.
***Релиз - BenderBEST.


[+] Знаете ли вы, что...
Священная книга жреца Тцекел-Кана содержит рисунок человека, ловящего рыбу с луны, пародирующий хорошо известный логотип DreamWorks.
Участвующие в озвучке мультфильмов обычно работают поодиночке, но вопреки этой традиции все диалоги между героями Кеннета Браны и Кевина Клайна были записаны совместно обоими актёрами.
Навязчивый броненосец, не оставляющий в покое героев на протяжении всего фильма, получил имя Бибо в честь одного из содиректоров Эрика Бибо Бержерона.
Была запланирована целая серия сиквелов мультфильма, но после его провала в прокате все эти планы были моментально свёрнуты и преданы полному забвению.



[+] MediaInfo
Общее
Уникальный идентификатор                 : 197833670011656560678177803944469438187 (0x94D56100232F9D93990BA1DB2E9B9EEB)
Полное имя                               : The.Road.to.El.Dorado.2000.1080p.WEBRip.Rus.Ukr.Eng.HDCLUB.mkv
Формат                                   : Matroska
Версия формата                           : Version 4 / Version 2
Размер файла                             : 6,60 Гбайт
Продолжительность                        : 1 ч. 29 м.
Режим общего битрейта                    : Переменный
Общий поток                              : 10,6 Мбит/сек
Название фильма                          : Дорога на Эльдорадо / The Road to El Dorado (2000) - ReJliz HDCLUB by BenderBEST
Дата кодирования                         : UTC 2017-08-08 17:39:53
Программа кодирования                    : mkvmerge v6.9.1 ('Blue Panther') 32bit built on Apr 18 2014 18:15:44
Библиотека кодирования                   : libebml v1.3.0 + libmatroska v1.4.1

Видео
Идентификатор                            : 1
Формат                                   : AVC
Формат/Информация                        : Advanced Video Codec
Профиль формата                          : High@L4.0
Параметр CABAC формата                   : Да
Параметр ReFrames формата                : 4 кадра
Идентификатор кодека                     : V_MPEG4/ISO/AVC
Продолжительность                        : 1 ч. 29 м.
Вид битрейта                             : Переменный
Максимальный битрейт                     : 15,0 Мбит/сек
Ширина                                   : 1920 пикселей
Высота                                   : 1080 пикселей
Соотношение сторон                       : 16:9
Режим частоты кадров                     : Постоянный
Частота кадров                           : 23,976 кадра/сек
Цветовое пространство                    : YUV
Субдискретизация насыщенности            : 4:2:0
Битовая глубина                          : 8 бит
Тип развёртки                            : Прогрессивная
Библиотека кодирования                   : x264 core 148 r2623 d5b2374
Настройки программы                      : cabac=1 / ref=4 / deblock=1:-1:-1 / analyse=0x3:0x133 / me=umh / subme=9 / psy=1 / psy_rd=1.00:0.15 / mixed_ref=1 / me_range=24 / chroma_me=1 / trellis=2 / 8x8dct=1 / cqm=0 / deadzone=21,11 / fast_pskip=1 / chroma_qp_offset=-3 / threads=34 / lookahead_threads=5 / sliced_threads=0 / nr=150 / decimate=1 / interlaced=0 / bluray_compat=0 / constrained_intra=0 / bframes=8 / b_pyramid=2 / b_adapt=2 / b_bias=0 / direct=3 / weightb=1 / open_gop=0 / weightp=2 / keyint=120 / keyint_min=61 / scenecut=0 / intra_refresh=0 / rc_lookahead=120 / rc=crf / mbtree=1 / crf=18.0 / qcomp=0.60 / qpmin=0 / qpmax=69 / qpstep=4 / vbv_maxrate=15000 / vbv_bufsize=31250 / crf_max=0.0 / nal_hrd=vbr / filler=0 / ip_ratio=1.40 / aq=3:1.00
Язык                                     : English
Default                                  : Да
Forced                                   : Да
Основные цвета                           : BT.709
Характеристики трансфера                 : BT.709
Коэффициенты матрицы                     : BT.709

Аудио #1
Идентификатор                            : 2
Формат                                   : AC-3
Формат/Информация                        : Audio Coding 3
Расширение режима                        : CM (complete main)
Параметр Endianness формата              : Big
Идентификатор кодека                     : A_AC3
Продолжительность                        : 1 ч. 29 м.
Вид битрейта                             : Постоянный
Битрейт                                  : 192 Кбит/сек
Каналы                                   : 2 канала
Расположение каналов                     : Front: L R
Частота                                  : 48,0 КГц
Битовая глубина                          : 16 бит
Метод сжатия                             : С потерями
Размер потока                            : 123 Мбайт (2%)
Заголовок                                : AC3 2.0 @ 192 kbps - DUB, AB Video / ОРТ
Язык                                     : Russian
Default                                  : Да
Forced                                   : Да

Аудио #2
Идентификатор                            : 3
Формат                                   : AC-3
Формат/Информация                        : Audio Coding 3
Расширение режима                        : CM (complete main)
Параметр Endianness формата              : Big
Идентификатор кодека                     : A_AC3
Продолжительность                        : 1 ч. 29 м.
Вид битрейта                             : Постоянный
Битрейт                                  : 448 Кбит/сек
Каналы                                   : 6 каналов
Расположение каналов                     : Front: L C R, Side: L R, LFE
Частота                                  : 48,0 КГц
Битовая глубина                          : 16 бит
Метод сжатия                             : С потерями
Размер потока                            : 287 Мбайт (4%)
Заголовок                                : AC3 5.1 @ 448 kbps - DUB, Пифагор
Язык                                     : Russian
Default                                  : Нет
Forced                                   : Нет

Аудио #3
Идентификатор                            : 4
Формат                                   : AC-3
Формат/Информация                        : Audio Coding 3
Расширение режима                        : CM (complete main)
Параметр Endianness формата              : Big
Идентификатор кодека                     : A_AC3
Продолжительность                        : 1 ч. 29 м.
Вид битрейта                             : Постоянный
Битрейт                                  : 448 Кбит/сек
Каналы                                   : 6 каналов
Расположение каналов                     : Front: L C R, Side: L R, LFE
Частота                                  : 48,0 КГц
Битовая глубина                          : 16 бит
Метод сжатия                             : С потерями
Размер потока                            : 287 Мбайт (4%)
Заголовок                                : AC3 5.1 @ 448 kbps - MVO, Премьер Мультимедиа
Язык                                     : Russian
Default                                  : Нет
Forced                                   : Нет

Аудио #4
Идентификатор                            : 5
Формат                                   : AC-3
Формат/Информация                        : Audio Coding 3
Расширение режима                        : CM (complete main)
Параметр Endianness формата              : Big
Идентификатор кодека                     : A_AC3
Продолжительность                        : 1 ч. 29 м.
Вид битрейта                             : Постоянный
Битрейт                                  : 192 Кбит/сек
Каналы                                   : 2 канала
Расположение каналов                     : Front: L R
Частота                                  : 48,0 КГц
Битовая глубина                          : 16 бит
Метод сжатия                             : С потерями
Размер потока                            : 123 Мбайт (2%)
Заголовок                                : AC3 2.0 @ 192 kbps - MVO, Премьер Видео Фильм
Язык                                     : Russian
Default                                  : Нет
Forced                                   : Нет

Аудио #5
Идентификатор                            : 6
Формат                                   : AC-3
Формат/Информация                        : Audio Coding 3
Расширение режима                        : CM (complete main)
Параметр Endianness формата              : Big
Идентификатор кодека                     : A_AC3
Продолжительность                        : 1 ч. 29 м.
Вид битрейта                             : Постоянный
Битрейт                                  : 384 Кбит/сек
Каналы                                   : 6 каналов
Расположение каналов                     : Front: L C R, Side: L R, LFE
Частота                                  : 48,0 КГц
Битовая глубина                          : 16 бит
Метод сжатия                             : С потерями
Размер потока                            : 246 Мбайт (4%)
Заголовок                                : AC3 5.1 @ 384 kbps - MVO, Неизвестный
Язык                                     : Russian
Default                                  : Нет
Forced                                   : Нет

Аудио #6
Идентификатор                            : 7
Формат                                   : AC-3
Формат/Информация                        : Audio Coding 3
Расширение режима                        : CM (complete main)
Параметр Endianness формата              : Big
Идентификатор кодека                     : A_AC3
Продолжительность                        : 1 ч. 29 м.
Вид битрейта                             : Постоянный
Битрейт                                  : 448 Кбит/сек
Каналы                                   : 6 каналов
Расположение каналов                     : Front: L C R, Side: L R, LFE
Частота                                  : 48,0 КГц
Битовая глубина                          : 16 бит
Метод сжатия                             : С потерями
Размер потока                            : 287 Мбайт (4%)
Заголовок                                : AC3 5.1 @ 448 kbps - AVO, Визгунов
Язык                                     : Russian
Default                                  : Нет
Forced                                   : Нет

Аудио #7
Идентификатор                            : 8
Формат                                   : AC-3
Формат/Информация                        : Audio Coding 3
Расширение режима                        : CM (complete main)
Параметр Endianness формата              : Big
Идентификатор кодека                     : A_AC3
Продолжительность                        : 1 ч. 29 м.
Вид битрейта                             : Постоянный
Битрейт                                  : 448 Кбит/сек
Каналы                                   : 6 каналов
Расположение каналов                     : Front: L C R, Side: L R, LFE
Частота                                  : 48,0 КГц
Битовая глубина                          : 16 бит
Метод сжатия                             : С потерями
Размер потока                            : 287 Мбайт (4%)
Заголовок                                : AC3 5.1 @ 448 kbps - AVO, Живов
Язык                                     : Russian
Default                                  : Нет
Forced                                   : Нет

Аудио #8
Идентификатор                            : 9
Формат                                   : AC-3
Формат/Информация                        : Audio Coding 3
Расширение режима                        : CM (complete main)
Параметр Endianness формата              : Big
Идентификатор кодека                     : A_AC3
Продолжительность                        : 1 ч. 29 м.
Вид битрейта                             : Постоянный
Битрейт                                  : 192 Кбит/сек
Каналы                                   : 2 канала
Расположение каналов                     : Front: L R
Частота                                  : 48,0 КГц
Битовая глубина                          : 16 бит
Метод сжатия                             : С потерями
Размер потока                            : 123 Мбайт (2%)
Заголовок                                : AC3 2.0 @ 192 kbps - MVO, канал Інтер
Язык                                     : Ukrainian
Default                                  : Нет
Forced                                   : Нет

Аудио #9
Идентификатор                            : 10
Формат                                   : AC-3
Формат/Информация                        : Audio Coding 3
Расширение режима                        : CM (complete main)
Параметр Endianness формата              : Big
Идентификатор кодека                     : A_AC3
Продолжительность                        : 1 ч. 29 м.
Вид битрейта                             : Постоянный
Битрейт                                  : 192 Кбит/сек
Каналы                                   : 2 канала
Расположение каналов                     : Front: L R
Частота                                  : 48,0 КГц
Битовая глубина                          : 16 бит
Метод сжатия                             : С потерями
Размер потока                            : 123 Мбайт (2%)
Заголовок                                : AC3 2.0 @ 192 kbps - MVO, канал Н
Язык                                     : Ukrainian
Default                                  : Нет
Forced                                   : Нет

Аудио #10
Идентификатор                            : 11
Формат                                   : AC-3
Формат/Информация                        : Audio Coding 3
Расширение режима                        : CM (complete main)
Параметр Endianness формата              : Big
Идентификатор кодека                     : A_AC3
Продолжительность                        : 1 ч. 29 м.
Вид битрейта                             : Постоянный
Битрейт                                  : 640 Кбит/сек
Каналы                                   : 6 каналов
Расположение каналов                     : Front: L C R, Side: L R, LFE
Частота                                  : 48,0 КГц
Битовая глубина                          : 16 бит
Метод сжатия                             : С потерями
Размер потока                            : 409 Мбайт (6%)
Заголовок                                : AC3 5.1 @ 640 kbps
Язык                                     : English
Default                                  : Нет
Forced                                   : Нет

Аудио #11
Идентификатор                            : 12
Формат                                   : AAC
Формат/Информация                        : Advanced Audio Codec
Профиль формата                          : LC
Идентификатор кодека                     : A_AAC
Продолжительность                        : 1 ч. 29 м.
Каналы                                   : 2 канала
Расположение каналов                     : Front: L R
Частота                                  : 48,0 КГц
Метод сжатия                             : С потерями
Задержка видео                           : 9 мс.
Заголовок                                : AAC 2.0 @ 160 kbps - Commentary Bibo Bergeron & Don Paul
Язык                                     : Russian
Default                                  : Нет
Forced                                   : Нет

Аудио #12
Идентификатор                            : 13
Формат                                   : AAC
Формат/Информация                        : Advanced Audio Codec
Профиль формата                          : LC
Идентификатор кодека                     : A_AAC
Продолжительность                        : 1 ч. 29 м.
Каналы                                   : 2 канала
Расположение каналов                     : Front: L R
Частота                                  : 48,0 КГц
Метод сжатия                             : С потерями
Задержка видео                           : 9 мс.
Заголовок                                : AAC 2.0 @ 160 kbps - Commentary Bibo Bergeron & Don Paul
Язык                                     : English
Default                                  : Нет
Forced                                   : Нет

Текст #1
Идентификатор                            : 14
Формат                                   : UTF-8
Идентификатор кодека                     : S_TEXT/UTF8
Идентификатор кодека/Информация          : UTF-8 Plain Text
Заголовок                                : Full
Язык                                     : Russian
Default                                  : Нет
Forced                                   : Нет

Текст #2
Идентификатор                            : 15
Формат                                   : UTF-8
Идентификатор кодека                     : S_TEXT/UTF8
Идентификатор кодека/Информация          : UTF-8 Plain Text
Заголовок                                : SDH
Язык                                     : English
Default                                  : Нет
Forced                                   : Нет

Меню
00:00:00.000                             : en:El Dorado (main titles)
00:04:03.000                             : en:Loaded Dice
00:07:23.000                             : en:Stowaways
00:10:38.000                             : en:Overboard
00:14:02.000                             : en:Beached
00:17:19.000                             : en:The Trail We Blaze
00:20:28.000                             : en:Great Big Rock
00:23:58.000                             : en:Entering El Dorado
00:25:05.000                             : en:Stopping the Volcano
00:30:15.000                             : en:Cheldorado
00:34:46.000                             : en:It's Tough to Be a God
00:37:23.000                             : en:A Proper Tribute
00:42:27.000                             : en:Three Days
00:46:31.000                             : en:Age of the Jaguar
00:48:18.000                             : en:Without Question
00:50:35.000                             : en:Tzekel-kan's Advice
00:52:52.000                             : en:Play Ball
00:57:48.000                             : en:No Sacrifices
00:59:22.000                             : en:Gods Don't Bleed
01:02:40.000                             : en:Tulio and Chel - Deal
01:05:18.000                             : en:Jaguar Attacks
01:10:02.000                             : en:Tzekel-kan Emerges
01:11:34.000                             : en:Friends Never Say Goodbye
01:14:43.000                             : en:Cortes Approaches
01:16:59.000                             : en:Got a Wave to Catch
01:19:46.000                             : en:There's No El Dorado Here
01:21:12.000                             : en:Follow That Trail
01:22:44.000                             : en:Someday Out of the Blue (end credits)



Скриншоты:
[+] Всего файлов в раздаче - 1:
The.Road.to.El.Dorado.2000.1080p.WEBRip.Rus.Ukr.Eng.HDCLUB.mkv6.60 GB

Текущая раздача:
ДатаКомментарии    РазмерПиры
2018-06-27 U Дорога на Эльдорадо / The Road to El Dorado (2000) WEB-DL 1080p | D, P, A 6.60 GB ↑ 56 ↓ 12

Показать еще раздачи по запросу дорога:
2018-05-19 U Безумный Макс: Дорога ярости / Mad Max: Fury Road (2015) BDRip 1080p 7.75 GB ↑ 244 ↓ 22
2018-05-12 U Лесной змей / Полынь: Дорога мёртвых / Wyrmwood (2014) BDRip-AVC от HELLYWOOD | P, A 2.91 GB ↑ 83 ↓ 32
2018-03-11 U Дорога из желтого кирпича [01-04 из 04] (2017) WEB-DLRip от GeneralFilm 1.46 GB ↑ 106 ↓ 56
2018-03-11 U Дорога из жёлтого кирпича [01-04 из 04] (2017) WEB-DLRip-AVC от Files-x 2.26 GB ↑ 62 ↓ 49
2018-03-11 U Дорога из желтого кирпича [01-04 из 04] (2017) WEB-DLRip от Files-x 2.36 GB ↑ 149 ↓ 83
2018-03-10 U Дорога из жёлтого кирпича [01х01-04 из 04] (2017) SATRip-AVC 2.09 GB ↑ 9 ↓ 5
2018-02-12 U Калбазов Константин - Фронтир 3. Дорога на двоих (2018) MP3 242.98 MB ↑ 198 ↓ 39

Отзывы
Зарегистрируйтесь чтобы добавить комментарий.
Обратная связь
Copyleft ©