↑↓torrent.by
Поиск
Логин: Регистрация
Пароль: Восстановить пароль

Властелины вселенной: Откровение / Masters of the Universe: Revelation [01х01-05 из 10] (2021) WEBRip 1080p | VHSник

Скачать vlasteliny-vselennoy-otkrovenie-masters-of-the-universe-revelation-01h01-05-iz-10-2021-webrip-1080p-vhsnik.torrent
U Магнитная ссылка Размер: 4.20 GB Раздают: 11 Качают: 0 Добавлен: 2021-08-21 20:12:42
Властелины вселенной: Откровение / Masters of the Universe: Revelation [01х01-05 из 10] (2021) WEBRip 1080p | VHSник

Название: Властелины вселенной: Откровение
Оригинальное название: Masters of the Universe: Revelation
Год выхода: 2021
Жанр: Фантастика, фэнтези, боевик, приключения
Режиссер: Кевин Смит
Продюсер: Адам Боннетт, Сьюзэн Норкин, Кристофер Кинэн,
Сценарий: Эрик Карраско, Дия Мишра, Тим Шеридан
В ролях: Адам Гиффорд, Деннис Хейсбёрт, Джей Таваре, Крис Вуд, Дидрих Бадер, Кевин Конрой, Лиам Каннингэм, Сьюзэн Эйзенберг, Сара Мишель Геллар, Марк Хэмилл и др.

О фильме:
В сериала «Властелины вселенной: Откровения» события разворачиваются сразу же после произошедшего в «Хи-Мене и Властелинах Вселенной». После грандиозной битвы между принцем Адамом и Скелетором, в результате которой Этерния оказалась раздроблена, а защитники замка Серого Черепа – разбросаны по миру. Теперь Тила должна вновь объединить героев, и вместе им предстоит разгадать тайну пропавшего Меча Могущества, объединить Этернию и предотвратить гибель вселенной.

[url=http://www.imdb.com/title/tt10826054/" target="_blank">


[+] Список серий
01. Сила Серого черепа / The Power of Grayskull
02. Чаша яда / The Poisoned Chalice
03. Самый опасный человек в Этернии / The Most Dangerous Man in Eternia
04. Земля мертвых / Land of the Dead
05. Потерянный рай / The Forge at the Forest Forever



[+] MediaInfo
General
Unique ID                   : 243348170576579743483919341772821463024 (0xB7132721FFA9E5E5F331F88A4B3F7FF0)
Complete name               : D:Повелители вселенной Откровение - Сезон 1 - VHSникПовелители Вселенной Откровение - Сезон 1, серия 1 - VHSник.mkv
Format                      : Matroska
Format version              : Version 4 / Version 2
File size                   : 1.27 GiB
Duration                    : 25 min 50 s
Overall bit rate mode       : Variable
Overall bit rate            : 7 058 kb/s
Encoded date                : UTC 2021-07-23 13:58:33
Writing application         : mkvmerge v57.0.0 ('Till The End') 64-bit
Writing library             : libebml v1.4.2 + libmatroska v1.6.4

Video
ID                          : 1
Format                      : AVC
Format/Info                 : Advanced Video Codec
Format profile              : Main@L4
Format settings, CABAC      : Yes
Format settings, ReFrames   : 3 frames
Codec ID                    : V_MPEG4/ISO/AVC
Duration                    : 25 min 50 s
Bit rate mode               : Variable
Bit rate                    : 5 796 kb/s
Nominal bit rate            : 6 190 kb/s
Maximum bit rate            : 9 285 kb/s
Width                       : 1 920 pixels
Height                      : 1 080 pixels
Display aspect ratio        : 16:9
Frame rate mode             : Constant
Frame rate                  : 24.000 FPS
Color space                 : YUV
Chroma subsampling          : 4:2:0
Bit depth                   : 8 bits
Scan type                   : Progressive
Bits/(Pixel*Frame)          : 0.116
Stream size                 : 1.05 GiB (82%)
Writing library             : x264 core 148 r2722 1b0121b
Encoding settings           : cabac=1 / ref=3 / deblock=1:0:0 / analyse=0x1:0x111 / me=umh / subme=10 / psy=1 / psy_rd=1.00:0.00 / mixed_ref=1 / me_range=24 / chroma_me=1 / trellis=2 / 8x8dct=0 / cqm=0 / deadzone=21,11 / fast_pskip=1 / chroma_qp_offset=-2 / threads=8 / lookahead_threads=1 / sliced_threads=0 / nr=0 / decimate=1 / interlaced=0 / bluray_compat=0 / stitchable=1 / constrained_intra=0 / bframes=2 / b_pyramid=0 / b_adapt=2 / b_bias=0 / direct=3 / weightb=1 / open_gop=0 / weightp=2 / keyint=250 / keyint_min=24 / scenecut=0 / intra_refresh=0 / rc_lookahead=48 / rc=2pass / mbtree=1 / bitrate=6190 / ratetol=1.0 / qcomp=0.50 / qpmin=6 / qpmax=51 / qpstep=4 / cplxblur=20.0 / qblur=0.5 / vbv_maxrate=9285 / vbv_bufsize=12380 / nal_hrd=vbr / filler=0 / ip_ratio=1.40 / aq=1:1.00
Default                     : Yes
Forced                      : No

Audio #1
ID                          : 2
Format                      : AC-3
Format/Info                 : Audio Coding 3
Mode extension              : CM (complete main)
Format settings, Endianness : Big
Codec ID                    : A_AC3
Duration                    : 25 min 4 s
Bit rate mode               : Constant
Bit rate                    : 640 kb/s
Channel(s)                  : 1 channel
Channel positions           : Front: C
Sampling rate               : 48.0 kHz
Frame rate                  : 31.250 FPS (1536 spf)
Bit depth                   : 16 bits
Compression mode            : Lossy
Stream size                 : 115 MiB (9%)
Title                       : VHSник
Language                    : Russian
Default                     : Yes
Forced                      : No

Audio #2
ID                          : 3
Format                      : E-AC-3
Format/Info                 : Enhanced Audio Coding 3
Format settings, Endianness : Big
Codec ID                    : A_EAC3
Duration                    : 25 min 50 s
Bit rate mode               : Constant
Bit rate                    : 640 kb/s
Channel(s)                  : 6 channels
Channel positions           : Front: L C R, Side: L R, LFE
Sampling rate               : 48.0 kHz
Frame rate                  : 187.500 FPS (256 spf)
Compression mode            : Lossy
Stream size                 : 118 MiB (9%)
Title                       : English
Language                    : English
Default                     : No
Forced                      : No

Text #1
ID                          : 4
Format                      : UTF-8
Codec ID                    : S_TEXT/UTF8
Codec ID/Info               : UTF-8 Plain Text
Duration                    : 24 min 9 s
Bit rate                    : 52 b/s
Count of elements           : 360
Stream size                 : 9.33 KiB (0%)
Title                       : English CC
Language                    : English
Default                     : No
Forced                      : No

Text #2
ID                          : 5
Format                      : UTF-8
Codec ID                    : S_TEXT/UTF8
Codec ID/Info               : UTF-8 Plain Text
Duration                    : 24 min 44 s
Bit rate                    : 74 b/s
Count of elements           : 248
Stream size                 : 13.5 KiB (0%)
Title                       : Russian
Language                    : Russian
Default                     : No
Forced                      : No




Скриншоты:
[+] Всего файлов в раздаче - 5:
Повелители Вселенной Откровение - Сезон 1, серия 2 - VHSник.mkv681.40 MB
Повелители Вселенной Откровение - Сезон 1, серия 3 - VHSник.mkv713.87 MB
Повелители Вселенной Откровение - Сезон 1, серия 4 - VHSник.mkv721.86 MB
Повелители Вселенной Откровение - Сезон 1, серия 5 - VHSник.mkv882.77 MB
Повелители Вселенной Откровение - Сезон 1, серия 1 - VHSник.mkv1.27 GB

Похожие раздачи по запросу - властелины:
Вчера U Хи-Мэн и властелины вселенной / He-Man and the Masters of the Universe [S01] (2021) WEB-DL 1080p от KORSARS | D | Netflix 8.66 GB ↑ 24 ↓ 17

Отзывы
Зарегистрируйтесь чтобы добавить комментарий.
Загрузите программу
  byTorrent
Обратная связь
Copyleft ©