↑↓Torrent.by
Поиск
Логин: Регистрация
Пароль: Восстановить пароль
Загрузка...

Невероятные приключения ДжоДжо / JoJo's Bizarre Adventure: Diamond Is Unbreakable 1 (2017) BDRip-AVC | L

Скачать neveroyatnye-priklyucheniya-dzhodzho-jojo-s-bizarre-adventure-diamond-is-unbreakable-1-2017-bdrip-avc-l.torrent
U Магнитная ссылка Размер: 1.13 GB Раздают: 22 Качают: 8 Добавлен: 2018-06-27 05:48:19
Невероятные приключения ДжоДжо / JoJo's Bizarre Adventure: Diamond Is Unbreakable 1 (2017) BDRip-AVC | L

Название: Невероятные приключения ДжоДжо: Неразрушимый алмаз (фильм первый)
Оригинальное название: JoJo's Bizarre Adventure: Diamond Is Unbreakable - Chapter 1
Год выхода: 2017
Жанр: фантастика, приключения, боевик
Режиссер: Миикэ Такаси
В ролях: Кэнто Ямадзаки, Рюносукэ Камики, Нана Комацу, Масаки Окада, Макэню Арата, Кэндзи Мидзухаси, Ариса Мидзуки, Дзюн Кунимура, Такаюки Ямада, Юсукэ Исэя

О фильме:
Прибрежный городок Морио до поры до времени был тихим и ничем не примечательным, пока однажды там не появился древний артефакт «Лук и стрела», способный пробуждать в людях скрытые способности, также называемые «стенд». Это породило волну необычных и необычайных событий, среди которых особо выделяются исчезновения молодых девушек.
Однако, никто не поднимает шум, и убийце живется весьма вольготно, пока однажды в Морио не прибывает молодой океанолог Джотаро Куджо. И теперь загадочному маньяку предстоит противостоять ему, а также Джоскэ Хигашикате, внебрачному сыну Джозефа, несокрушимому, как алмаз.

Доп. информация: Экранизация одноимённой манги.

Страна: Япония
Продолжительность: 01:59:01
Перевод: Любительский одноголосый (Persona99)

Файл
Кодек: x264
Качество: BDRip
Видео: 1136x480, pixels, 30.000 fps, 780 Kbps
Звук:
1. AC3 48 КГц; 192 Кбит/сек , 2.0
2. AC3 48 КГц; 384 Кбит/сек , 2.0
Субтитры: Нет

Семпл
[+] Подробные тех. данные
General
Unique ID                                : 188768307680923956451444713924209834802 (0x8E0374212FF913CA88777A96F4DE7B32)
Complete name                            : W:SeriesJoJos Bizarre Adventure Diamond is Unbreakable Chapter1.[Persona99].rus.jpn.mkv
Format                                   : Matroska
Format version                           : Version 2
File size                                : 1.13 GiB
Duration                                 : 1h 59mn
Overall bit rate                         : 1 357 Kbps
Encoded date                             : UTC 2018-05-07 12:10:59
Writing application                      : mkvmerge v4.1.1 ('Bouncin' Back') built on Jul  3 2010 22:54:08
Writing library                          : libebml v1.0.0 + libmatroska v1.0.0

Video
ID                                       : 1
Format                                   : AVC
Format/Info                              : Advanced Video Codec
Format profile                           : High@L3.1
Format settings, CABAC                   : Yes
Format settings, ReFrames                : 4 frames
Codec ID                                 : V_MPEG4/ISO/AVC
Duration                                 : 1h 59mn
Bit rate                                 : 780 Kbps
Width                                    : 1 136 pixels
Height                                   : 480 pixels
Display aspect ratio                     : 2.35:1
Frame rate mode                          : Constant
Frame rate                               : 30.000 fps
Color space                              : YUV
Chroma subsampling                       : 4:2:0
Bit depth                                : 8 bits
Scan type                                : Progressive
Bits/(Pixel*Frame)                       : 0.048
Stream size                              : 642 MiB (56%)
Writing library                          : x264 core 152 r2851 ba24899
Encoding settings                        : cabac=1 / ref=3 / deblock=1:0:0 / analyse=0x3:0x113 / me=hex / subme=7 / psy=1 / psy_rd=1.00:0.00 / mixed_ref=1 / me_range=16 / chroma_me=1 / trellis=1 / 8x8dct=1 / cqm=0 / deadzone=21,11 / fast_pskip=1 / chroma_qp_offset=-2 / threads=3 / lookahead_threads=1 / sliced_threads=0 / nr=0 / decimate=1 / interlaced=0 / bluray_compat=0 / constrained_intra=0 / bframes=3 / b_pyramid=2 / b_adapt=1 / b_bias=0 / direct=1 / weightb=1 / open_gop=0 / weightp=2 / keyint=300 / keyint_min=30 / scenecut=40 / intra_refresh=0 / rc_lookahead=40 / rc=2pass / mbtree=1 / bitrate=780 / ratetol=1.0 / qcomp=0.60 / qpmin=0 / qpmax=69 / qpstep=4 / cplxblur=20.0 / qblur=0.5 / ip_ratio=1.40 / aq=1:1.00
Default                                  : No
Forced                                   : No

Audio #1
ID                                       : 2
Format                                   : AC-3
Format/Info                              : Audio Coding 3
Mode extension                           : CM (complete main)
Format settings, Endianness              : Big
Muxing mode                              : Header stripping
Codec ID                                 : A_AC3
Duration                                 : 1h 59mn
Bit rate mode                            : Constant
Bit rate                                 : 192 Kbps
Channel(s)                               : 2 channels
Channel positions                        : Front: L R
Sampling rate                            : 48.0 KHz
Compression mode                         : Lossy
Stream size                              : 163 MiB (14%)
Title                                    : Persona99
Language                                 : Russian
Default                                  : Yes
Forced                                   : No

Audio #2
ID                                       : 3
Format                                   : AC-3
Format/Info                              : Audio Coding 3
Mode extension                           : CM (complete main)
Format settings, Endianness              : Big
Muxing mode                              : Header stripping
Codec ID                                 : A_AC3
Duration                                 : 1h 59mn
Bit rate mode                            : Constant
Bit rate                                 : 384 Kbps
Channel(s)                               : 2 channels
Channel positions                        : Front: L R
Sampling rate                            : 48.0 KHz
Compression mode                         : Lossy
Stream size                              : 327 MiB (28%)
Language                                 : Japanese
Default                                  : No
Forced                                   : No



Скриншоты:
[+] Всего файлов в раздаче - 1:
JoJos Bizarre Adventure Diamond is Unbreakable Chapter1.[Persona99].rus.jpn.mkv1.13 GB

Показать еще раздачи по запросу невероятные:
2018-10-06 U Невероятные приключения Факира / The Extraordinary Journey of the Fakir (2018) BDRip 1080p | iTunes 7.78 GB ↑ 218 ↓ 86
2018-10-06 U Невероятные приключения Факира / The Extraordinary Journey of the Fakir (2018) BDRip от MegaPeer | iTunes 1.42 GB ↑ 361 ↓ 68
2018-10-05 U Невероятные приключения Факира / The Extraordinary Journey of the Fakir (2018) BDRip 720p | iTunes 4.62 GB ↑ 288 ↓ 36
2018-10-02 U Невероятные приключения Факира / The Extraordinary Journey of the Fakir (2018) WEB-DL 1080p | iTunes 3.31 GB ↑ 703 ↓ 205
2018-09-30 U Невероятные приключения Факира / The Extraordinary Journey of the Fakir (2018) WEB-DLRip от MegaPeer | iTunes 1.46 GB ↑ 883 ↓ 255
2018-05-25 U Невероятные приключения янки в Африке / Yankee Zulu (1993) WEB-DLRip 1080p | P, P2 8.78 GB ↑ 121 ↓ 34
2017-12-25 U Невероятные приключения Алины Троянской [01-04 из 04] (2014) WEB-DLRip-AVC от Files-x 4.47 GB ↑ 210 ↓ 96

Отзывы
caery
Типичная джаповская подростковая фэнтезя, довольно симпатичная внешне, но крайне малосодержательная внутренне. Кроме того, кино реально идет в лучшем случае часа полтора, остальное это паузы между диалогами, напоминающие очень медленную ссору детей в песочнице, сценарий, походу, написан ими же, последняя треть фильма очень долго тянется. Не, ну, а чего еще ждать-то было? Связного сюжета? Вменяемых персонажей? Логики событий? Забейте, только не с японцами. Самое интересное, что они могут ставить и нормальные фильмы, но раз такое кто-то смотрит, то почему бы и нет. Озвучка прикольная, кстати, "брата-ан, давай начнем сначала", просто песня, просто на не очень понятном языке.

Зарегистрируйтесь чтобы добавить комментарий.
Обратная связь
Copyleft ©