↑↓torrent.by
Поиск
Логин: Регистрация
Пароль: Восстановить пароль

Кобаяши и её горничная-дракон 2 / Kobayashi-san Chi no Maid Dragon S [02x01-07 из 24] (2021) WEB-Rip 1080p от KORSARS | P | Crunchyroll

Скачать kobayashi-i-ee-gornichnaya-drakon-2-san-chi-no-maid-dragon-s-02x01-07-iz-24-2021-web-rip-1080p-ot-korsars-p-crunchyroll.torrent
U Магнитная ссылка Размер: 9.37 GB Раздают: 10 Качают: 0 Добавлен: 2021-08-21 20:12:43
Кобаяши и её горничная-дракон 2 / Kobayashi-san Chi no Maid Dragon S [02x01-07 из 24] (2021) WEB-Rip 1080p от KORSARS | P | Crunchyroll

Название: Кобаяши и её горничная-дракон 2
Альтернативное название: Дракониха-горничная госпожи Кобаяси S
Оригинальное названия: Kobayashi-san Chi no Maid Dragon S
Год выхода: 2021
Жанр: комедия, фэнтези, повседневность
Режиссеры: Ясухиро Такэмото, Тацуя Исихара

О фильме:
Дракон-горничная вернулась! Дракон Тору по одной только ей известной причине решила стать личной горничной Кобаяси. Хоть Тору немного (враньё, очень даже много) и беспокоила свою любимую госпожу Кобаяси, тем не менее она хорошо (снова враньё, не так уж и хорошо) справлялась с обязанностями горничной, к тому же даже сумела влиться в человеческое общество. А драконы Канна, Кетцалькоатль, Фафнир и Эльма тоже нашли своё место под солнцем и наслаждаются жизнью бок о бок с людьми. Кобаяси упивалась размеренной и временами сумасшедшей жизнью с Тору, однако нежданно-негаданно их настигает новая драконья угроза... Что будет дальше? Узнаем в этом сезоне! © Shikimori


Страна: Япония
Продолжительность: ~ 00:23:40 (серия)
Перевод: Профессиональный (многоголосый, закадровый) | Crunchyroll

Файл
Формат: MKV
Кодек: MPEG-4 AVC
Качество: WEBRip 1080p
Видео: 1920x1080, ~ 8 000 Kb/s, 23.976 FPS, 8 bits
Аудио (русский): AAC LC, ~128 kb/s, 2 channels, 44.1 kHz
Субтитры: отсутствуют

Релиз:

21.08.2021 обновлено. Добавлена 7 серия.
[+] MediaInfo

General
Unique ID                   : 317271098955526899648376155196267527906 (0xEEB030E5290CFFF26D11F14DBCF17EE2)
Complete name               : [KORSARS]_Kobayashi-san.Chi.no.Maid.Dragon.S.E01.WEBRip.1080p_[Crunchyroll].mkv
Format                      : Matroska
Format version              : Version 4
File size                   : 1.34 GiB
Duration                    : 23 min 40 s
Overall bit rate            : 8 108 kb/s
Movie name                  : [KORSARS]_Kobayashi-san.Chi.no.Maid.Dragon.S.E01.WEBRip.1080p_[Crunchyroll]
Encoded date                : UTC 2021-08-08 15:46:39
Writing application         : mkvmerge v60.0.0 ('Are We Copies?') 64-bit
Writing library             : libebml v1.4.2 + libmatroska v1.6.4

Video
ID                          : 1
Format                      : AVC
Format/Info                 : Advanced Video Codec
Format profile              : High@L4
Format settings             : CABAC / 4 Ref Frames
Format settings, CABAC      : Yes
Format settings, Reference  : 4 frames
Codec ID                    : V_MPEG4/ISO/AVC
Duration                    : 23 min 40 s
Bit rate                    : 8 000 kb/s
Width                       : 1 920 pixels
Height                      : 1 080 pixels
Display aspect ratio        : 16:9
Frame rate mode             : Constant
Frame rate                  : 23.976 (24000/1001) FPS
Color space                 : YUV
Chroma subsampling          : 4:2:0
Bit depth                   : 8 bits
Scan type                   : Progressive
Bits/(Pixel*Frame)          : 0.161
Stream size                 : 1.32 GiB (98%)
Title                       : [KORSARS]_Kobayashi-san.Chi.no.Maid.Dragon.S.E01.WEBRip.1080p_[Crunchyroll]
Writing library             : x264 core 142
Encoding settings           : cabac=1 / ref=4 / deblock=1:1:1 / analyse=0x3:0x113 / me=umh / subme=8 / psy=1 / psy_rd=0.40:0.00 / mixed_ref=1 / me_range=16 / chroma_me=1 / trellis=1 / 8x8dct=1 / cqm=0 / deadzone=21,11 / fast_pskip=1 / chroma_qp_offset=-2 / threads=12 / lookahead_threads=2 / sliced_threads=0 / nr=0 / decimate=1 / interlaced=0 / bluray_compat=0 / constrained_intra=0 / bframes=0 / weightp=2 / keyint=96 / keyint_min=48 / scenecut=40 / intra_refresh=0 / rc_lookahead=48 / rc=2pass / mbtree=1 / bitrate=8000 / ratetol=1.0 / qcomp=0.60 / qpmin=0 / qpmax=69 / qpstep=4 / cplxblur=20.0 / qblur=0.5 / vbv_maxrate=12000 / vbv_bufsize=18000 / nal_hrd=none / filler=0 / ip_ratio=1.40 / aq=1:0.60
Default                     : Yes
Forced                      : No

Audio
ID                          : 2
Format                      : AAC LC
Format/Info                 : Advanced Audio Codec Low Complexity
Codec ID                    : A_AAC-2
Duration                    : 23 min 40 s
Bit rate                    : 128 kb/s
Channel(s)                  : 2 channels
Channel layout              : L R
Sampling rate               : 44.1 kHz
Frame rate                  : 43.066 FPS (1024 SPF)
Compression mode            : Lossy
Stream size                 : 21.7 MiB (2%)
Title                       : [KORSARS]_Kobayashi-san.Chi.no.Maid.Dragon.S.E01.WEBRip.1080p_[Crunchyroll]
Language                    : Russian
Default                     : Yes
Forced                      : No



Скриншоты:
[+] Всего файлов в раздаче - 7:
[KORSARS]_Kobayashi-san.Chi.no.Maid.Dragon.S.E03.WEBRip.1080p_[Crunchyroll].mkv1.33 GB
[KORSARS]_Kobayashi-san.Chi.no.Maid.Dragon.S.E06.WEBRip.1080p_[Crunchyroll].mkv1.34 GB
[KORSARS]_Kobayashi-san.Chi.no.Maid.Dragon.S.E02.WEBRip.1080p_[Crunchyroll].mkv1.34 GB
[KORSARS]_Kobayashi-san.Chi.no.Maid.Dragon.S.E05.WEBRip.1080p_[Crunchyroll].mkv1.34 GB
[KORSARS]_Kobayashi-san.Chi.no.Maid.Dragon.S.E01.WEBRip.1080p_[Crunchyroll].mkv1.34 GB
[KORSARS]_Kobayashi-san.Chi.no.Maid.Dragon.S.E04.WEBRip.1080p_[Crunchyroll].mkv1.34 GB
[KORSARS]_Kobayashi-san.Chi.no.Maid.Dragon.S.E07.WEBRip.1080p_[Crunchyroll].mkv1.34 GB

Отзывы
Зарегистрируйтесь чтобы добавить комментарий.
Загрузите программу
  byTorrent
Обратная связь
Copyleft ©