↑↓torrent.by
Поиск
Логин: Регистрация
Пароль: Восстановить пароль

Я стою на миллионе трупов 2 / 100-man no Inochi no Ue ni Ore wa Tatte Iru [02x01-06 из 12] (2021) WEBRip 1080p от KORSARS | Crunchyroll

Скачать ya-stoyu-na-millione-trupov-2-100-man-no-inochi-ue-ni-ore-wa-tatte-iru-02x01-06-iz-12-2021-webrip-1080p-ot-korsars-crunchyroll.torrent
U Магнитная ссылка Размер: 8.08 GB Раздают: 10 Качают: 0 Добавлен: 2021-08-21 20:12:45
Я стою на миллионе трупов 2 / 100-man no Inochi no Ue ni Ore wa Tatte Iru [02x01-06 из 12] (2021) WEBRip 1080p от KORSARS | Crunchyroll

Название: Я стою на миллионе трупов 2
Оригинальное название: 100-man no Inochi no Ue ni Ore wa Tatte Iru
Год выхода: 2021
Жанр: комедия, экшен, фэнтези, сёнен, драма, игры
Режиссер: Кумико Хабара

О фильме:
Ёцуя Юусукэ вместе со своими одноклассницами Синду Ю и Хакозаки Кусуэ перенеслись в странный и незнакомый мир, населенный мифологическими существами. По прибытии они встречают Гейм Мастера, который выдаёт им задание, ограниченное по времени, а чтобы облегчить задачу, дарует Синду и Хакодзаки классы Мага и Воина, Ёцуе же по велению фортуны достаётся класс... фермера?! У троицы одноклассников нет выбора, они вынуждены начать новую суматошную жизнь полную приключений и случайных заданий в фентезийном мире, если они хотят пережить хоть несколько фаз и защитить реальный мир от демонов и монстров, с которыми они здесь столкнулись.

 
Страна: Япония
Продолжительность: ~ 00:23:40 (серия)
Перевод: Профессиональный многоголосый (закадровый) | Crunchyroll

Файл
Формат: MKV
Кодек: MPEG-4 AVC
Качество: WEBRip 1080p
Видео: 1920x1080, ~8 000 kb/s, 23.976 FPS, 8 bits
Аудио (русский): AAC LC, 128 kb/s, 2 channels, 44.1 kHz
Субтитры: русские (вшитые на надписи, UTF-8) | Crunchyroll

Релиз:

21.08.2021 обновлено. Добавлена 6 серия.


[+] MediaInfo

General
Unique ID                   : 90232426905598153621027282664044250514 (0x43E2221F812EF9E77391596414164592)
Complete name               : [KORSARS]_100-manno.Inochi.no.Ue.ni.Ore.wa.Tatteiru.[S02E01].WEBRip.1080p_[Crunchyroll].mkv
Format                      : Matroska
Format version              : Version 4
File size                   : 1.35 GiB
Duration                    : 23 min 40 s
Overall bit rate            : 8 193 kb/s
Movie name                  : [KORSARS]_100-manno.Inochi.no.Ue.ni.Ore.wa.Tatteiru.[S02E01].WEBRip.1080p_[Crunchyroll]
Encoded date                : UTC 2021-08-14 13:52:46
Writing application         : mkvmerge v60.0.0 ('Are We Copies?') 64-bit
Writing library             : libebml v1.4.2 + libmatroska v1.6.4

Video
ID                          : 1
Format                      : AVC
Format/Info                 : Advanced Video Codec
Format profile              : Main@L4
Format settings             : CABAC / 4 Ref Frames
Format settings, CABAC      : Yes
Format settings, Reference  : 4 frames
Codec ID                    : V_MPEG4/ISO/AVC
Duration                    : 23 min 40 s
Bit rate                    : 8 000 kb/s
Width                       : 1 920 pixels
Height                      : 1 080 pixels
Display aspect ratio        : 16:9
Frame rate mode             : Constant
Frame rate                  : 23.976 (24000/1001) FPS
Color space                 : YUV
Chroma subsampling          : 4:2:0
Bit depth                   : 8 bits
Scan type                   : Progressive
Bits/(Pixel*Frame)          : 0.161
Stream size                 : 1.33 GiB (98%)
Title                       : [KORSARS]_100-manno.Inochi.no.Ue.ni.Ore.wa.Tatteiru.[S02E01].WEBRip.1080p_[Crunchyroll]
Writing library             : x264 core 157 r2935 545de2f
Encoding settings           : cabac=1 / ref=3 / deblock=1:0:0 / analyse=0x1:0x111 / me=hex / subme=7 / psy=1 / psy_rd=1.00:0.00 / mixed_ref=1 / me_range=16 / chroma_me=1 / trellis=1 / 8x8dct=0 / cqm=0 / deadzone=21,11 / fast_pskip=1 / chroma_qp_offset=-2 / threads=9 / lookahead_threads=1 / sliced_threads=0 / nr=0 / decimate=1 / interlaced=0 / bluray_compat=0 / constrained_intra=0 / bframes=3 / b_pyramid=2 / b_adapt=1 / b_bias=0 / direct=1 / weightb=1 / open_gop=0 / weightp=2 / keyint=240 / keyint_min=24 / scenecut=40 / intra_refresh=0 / rc_lookahead=40 / rc=abr / mbtree=1 / bitrate=8000 / ratetol=1.0 / qcomp=0.60 / qpmin=0 / qpmax=69 / qpstep=4 / vbv_maxrate=20000 / vbv_bufsize=25000 / nal_hrd=none / filler=0 / ip_ratio=1.40 / aq=1:1.00
Default                     : Yes
Forced                      : No
Color range                 : Limited
Color primaries             : BT.709
Transfer characteristics    : BT.709
Matrix coefficients         : BT.709

Audio
ID                          : 2
Format                      : AAC LC
Format/Info                 : Advanced Audio Codec Low Complexity
Codec ID                    : A_AAC-2
Duration                    : 23 min 40 s
Bit rate                    : 129 kb/s
Channel(s)                  : 2 channels
Channel layout              : L R
Sampling rate               : 44.1 kHz
Frame rate                  : 43.066 FPS (1024 SPF)
Compression mode            : Lossy
Delay relative to video     : -23 ms
Stream size                 : 21.8 MiB (2%)
Title                       : [KORSARS]_100-manno.Inochi.no.Ue.ni.Ore.wa.Tatteiru.[S02E01].WEBRip.1080p_[Crunchyroll]
Language                    : Russian
Default                     : Yes
Forced                      : No



Скриншоты:
[+] Всего файлов в раздаче - 6:
[KORSARS]_100-manno.Inochi.no.Ue.ni.Ore.wa.Tatteiru.[S02E06].WEBRip.1080p_[Crunchyroll].mkv1.33 GB
[KORSARS]_100-manno.Inochi.no.Ue.ni.Ore.wa.Tatteiru.[S02E05].WEBRip.1080p_[Crunchyroll].mkv1.34 GB
[KORSARS]_100-manno.Inochi.no.Ue.ni.Ore.wa.Tatteiru.[S02E02].WEBRip.1080p_[Crunchyroll].mkv1.35 GB
[KORSARS]_100-manno.Inochi.no.Ue.ni.Ore.wa.Tatteiru.[S02E04].WEBRip.1080p_[Crunchyroll].mkv1.35 GB
[KORSARS]_100-manno.Inochi.no.Ue.ni.Ore.wa.Tatteiru.[S02E03].WEBRip.1080p_[Crunchyroll].mkv1.35 GB
[KORSARS]_100-manno.Inochi.no.Ue.ni.Ore.wa.Tatteiru.[S02E01].WEBRip.1080p_[Crunchyroll].mkv1.35 GB

Отзывы
Зарегистрируйтесь чтобы добавить комментарий.
Загрузите программу
  byTorrent
Обратная связь
Copyleft ©