↑↓Torrent.by
Поиск
Логин: Регистрация
Пароль: Восстановить пароль
Загрузка...

В июне 1941 (2008) DVDRip-AVC от KORSAR

Скачать v-iyune-1941-2008-dvdrip-avc-ot-korsar.torrent
U Магнитная ссылка Размер: 3.66 GB Раздают: 34 Качают: 11 Добавлен: 2018-06-28 08:02:55
В июне 1941 (2008) DVDRip-AVC от KORSAR

Название: В июне 1941
Год выхода: 2008
Жанр:  Боевик, драма, военный
Режиссер: Александр Франскевич-Лайе
В ролях: Сергей Безруков, Павел Делонг, Магдалена Гурская, Ростислав Янковский, Владимир Янковский, Михаил Калиничев, Александр Франскевич-Лайе, Алеся Пуховая, Рафаэль Мукаев, Виталий Безруков, Олег Коц, Леонид Улащенко, Джульетта Геринг (Казакевич), Екатерина Вежновец, Игорь Сигов, Иван Павлов, Владимир Мищанчук, Сергей Прокопич

О фильме: Накануне войны лейтенант погранвойск Иван Буров прибывает из краткосрочного отпуска для продолжения службы на границе СССР и Польши. После нападения германских войск Буров единственный, кто остается в живых на вверенном ему участке государственной границы. Тем временем враг уже продвинулся далеко на восток. Узнав, что оккупанты хозяйничают в деревне, где живет Ханна - возлюбленная Бурова, он решает вести собственную войну с захватчиками. В одиночку, среди болот и лесов, в жару и в холод, без сна и отдыха, Буров становится серьезной угрозой для фашистов, своеобразным «духом мщения» - за погибших товарищей, за отнятое право любить.

Выпущено: Россия, Беларусь, Беларусьфильм, Централ Партнершип
Продолжительность: 4 x ~ 00:52:00
Перевод: Не требуется

Файл
Кодек: х264
Качество: DVDRip-AVC
Видео: MPEG-4 AVC, 698x414@744x414, 25.000 fps, 2200 Кбит/с
Аудио: AC3, 6 ch, 448 Кбит/с
Субтитры: Нет

Релиз:
[+] MediaInfo
Общее
Уникальный идентификатор : 207817916520416481415995160827757318103 (0x9C58465BF5841323A23524679697CFD7)
Полное имя : В июне 1941 (2008) DVDRip-AVC.KORSAR.mkv
Формат : Matroska
Версия формата : Version 2
Размер файла : 948 Мбайт
Продолжительность : 50 м. 0 с.
Общий поток : 2650 Кбит/сек
Дата кодирования : UTC 2017-07-18 09:32:38
Программа кодирования : mkvmerge v7.8.0 ('River Man') 32bit built on Apr 3 2015 12:11:22
Библиотека кодирования : libebml v1.3.1 + libmatroska v1.4.2

Видео
Идентификатор : 1
Формат : AVC
Формат/Информация : Advanced Video Codec
Профиль формата : High@L4.1
Параметр CABAC формата : Да
Параметр ReFrames формата : 15 кадров
Идентификатор кодека : V_MPEG4/ISO/AVC
Продолжительность : 50 м. 0 с.
Битрейт : 2200 Кбит/сек
Ширина : 698 пикселей
Высота : 414 пикселей
Соотношение сторон : 16:9
Соотношение сторон в оригинале : 16:9
Режим частоты кадров : Постоянный
Частота кадров : 25,000 кадров/сек
Цветовое пространство : YUV
Субдискретизация насыщенности : 4:2:0
Битовая глубина : 8 бит
Тип развёртки : Прогрессивная
Бит/(Пиксели*Кадры) : 0.305
Размер потока : 769 Мбайт (81%)
Библиотека кодирования : x264 core 148 r2744kMod b97ae06
Настройки программы : cabac=1 / ref=15 / deblock=1:-2:-2 / analyse=0x3:0x133 / me=umh / subme=10 / psy=1 / fade_compensate=0.00 / psy_rd=1.05:0.10 / mixed_ref=1 / me_range=32 / chroma_me=1 / trellis=2 / 8x8dct=1 / cqm=0 / deadzone=21,11 / fast_pskip=0 / chroma_qp_offset=-3 / threads=6 / lookahead_threads=1 / sliced_threads=0 / nr=0 / decimate=0 / interlaced=0 / bluray_compat=0 / constrained_intra=0 / bframes=12 / b_pyramid=2 / b_adapt=2 / b_bias=0 / direct=3 / weightb=1 / open_gop=0 / weightp=2 / keyint=250 / keyint_min=25 / scenecut=40 / intra_refresh=0 / rc=2pass / mbtree=0 / bitrate=2200 / ratetol=1.0 / qcomp=0.63 / qpmin=0 / qpmax=39 / qpstep=4 / cplxblur=20.0 / qblur=0.5 / ip_ratio=1.10 / pb_ratio=1.30 / aq=1:1.00
Язык : Russian
Default : Да
Forced : Нет
Цветовой диапазон : Limited
Основные цвета : BT.601 PAL
Характеристики трансфера : BT.470 System B, BT.470 System G
Коэффициенты матрицы : BT.601

Аудио
Идентификатор : 2
Формат : AC-3
Формат/Информация : Audio Coding 3
Параметр Endianness формата : Big
Идентификатор кодека : A_AC3
Продолжительность : 50 м. 0 с.
Вид битрейта : Постоянный
Битрейт : 448 Кбит/сек
Каналы : 6 каналов
Расположение каналов : Front: L C R, Side: L R, LFE
Частота : 48,0 КГц
Частота кадров : 31,250 кадров/сек (1536 spf)
Битовая глубина : 16 бит
Метод сжатия : С потерями
Размер потока : 160 Мбайт (17%)
Язык : Russian
Default : Да
Forced : Нет



Скриншоты:
[+] Всего файлов в раздаче - 4:
4 серия.mkv959.19 MB
1 серия.mkv947.73 MB
2 серия.mkv921.20 MB
3 серия.mkv920.67 MB

Текущая раздача:
ДатаКомментарии    РазмерПиры
2018-06-28 U В июне 1941 (2008) DVDRip-AVC от KORSAR 3.66 GB ↑ 34 ↓ 11

Похожие раздачи по запросу - июне:
2014-01-04 U В июне 1941 (2008) DVDRip 1К1.46 GB ↑ 188 ↓ 59

Отзывы
Зарегистрируйтесь чтобы добавить комментарий.
Обратная связь
Copyleft ©