↑↓Torrent.by
Поиск
Логин: Регистрация
Пароль: Восстановить пароль
Загрузка...

Муза смерти / Muse (2017) BDRip 720p | iTunes

Скачать muza-smerti-muse-2017-bdrip-720p-itunes.torrent
U Магнитная ссылка Размер: 4.52 GB Раздают: 55 Качают: 49 Добавлен: 2018-06-29 14:55:54
Муза смерти / Muse (2017) BDRip 720p | iTunes

Название: Муза смерти
Оригинальное название: Muse
Год выхода: 2017
Жанр: Ужасы, фантастика, триллер
Страна: Испания, Ирландия, Бельгия, Франция
Перевод: Дублированный | iTunes
Продолжительность: 01:47:30
Режиссер: Жауме Балагуэро
В ролях: Эллиот Кауэн, Франка Потенте, Ана Улару, Леонор Уотлинг, Мануэла Вельес, Джоэнн Уэлли, Кристофер Ллойд, Каллахэн О’Коннелл, Сэм Харди, Стелла МакКаскер и др.

О фильме: Профессор литературы Самуэль Саломон год назад ушел с работы после трагической смерти подруги. Он страдает от повторяющегося ночного кошмара, в котором видит женщину, зверски убиваемую при странном ритуале. Неожиданно ту же самую женщину, которая появляется каждую ночь в его снах, находят мертвой при тех же самых обстоятельствах. Самуэль пробирается на место преступления и там встречает Рэйчел, которой тоже приснилось это убийство. Пытаясь сделать всё возможное, чтобы разгадать личность таинственной женщины, они попадут в страшный мир, которым управляют фигуры, вдохновляющие художников на протяжении веков — музы.

Файл
Качество: BDRip 720p
Видео: MPEG-4 AVC, 1280x536, 5000 kbps, 24,000 fps
Звук#1: русский, AC3, 6 ch, 48 kHz, 384 kbps | iTunes
Звук#2: английский, AC3, 6 ch, 48 kHz, 640 kbps | оригинал
Субтитры: нет


[+] MI
General
Уникальный идентификатор                 : 254609764566272175603335633478230476266 (0xBF8C0E95A9672DCA8A813B323C9405EA)
Полное имя                               : F:TorrentMuse.2017.BDRip720p.mkv
Формат                                   : Matroska
Версия формата                           : Version 4 / Version 2
Размер файла                             : 4.52 GiB
Продолжительность                        : 1 h 47 min
Общий поток                              : 6 023 kb/s
Название фильма                          : Muse.2017.BDREMUX 1080p
Дата кодирования                         : UTC 2018-06-29 10:01:30
Программа кодирования                    : mkvmerge v9.5.0 ('Quiet Fire') 64bit
Библиотека кодирования                   : libebml v1.3.4 + libmatroska v1.4.5

Video
Идентификатор                            : 1
Формат                                   : AVC
Формат/Информация                        : Advanced Video Codec
Профиль формата                          : High@L4.1
Настройки формата                        : CABAC / 9 Ref Frames
Параметр CABAC формата                   : Yes
Параметр RefFrames формата               : 9 frames
Идентификатор кодека                     : V_MPEG4/ISO/AVC
Продолжительность                        : 1 h 47 min
Битрейт                                  : 5 000 kb/s
Ширина                                   : 1 280 pixels
Высота                                   : 536 pixels
Соотношение сторон                       : 2.40:1
Режим частоты кадров                     : Constant
Частота кадров                           : 24.000 FPS
Цветовое пространство                    : YUV
Субдискретизация насыщенности            : 4:2:0
Битовая глубина                          : 8 bits
Тип развёртки                            : Progressive
Бит/(Пиксели*Кадры)                      : 0.304
Размер потока                            : 3.75 GiB (83%)
Библиотека кодирования                   : x264 core 155 r2901M 7d0ff22
Настройки программы                      : cabac=1 / ref=9 / deblock=1:-2:-2 / analyse=0x3:0x133 / me=umh / subme=11 / psy=1 / psy_rd=1.00:0.00 / mixed_ref=1 / me_range=32 / chroma_me=1 / trellis=2 / 8x8dct=1 / cqm=0 / deadzone=21,11 / fast_pskip=0 / chroma_qp_offset=-2 / threads=9 / lookahead_threads=2 / sliced_threads=0 / nr=0 / decimate=0 / interlaced=0 / bluray_compat=0 / constrained_intra=0 / bframes=10 / b_pyramid=2 / b_adapt=2 / b_bias=0 / direct=3 / weightb=1 / open_gop=0 / weightp=2 / keyint=240 / keyint_min=24 / scenecut=40 / intra_refresh=0 / rc_lookahead=120 / rc=2pass / mbtree=0 / bitrate=5000 / ratetol=1.0 / qcomp=0.70 / qpmin=0 / qpmax=69 / qpstep=4 / cplxblur=20.0 / qblur=0.5 / vbv_maxrate=50000 / vbv_bufsize=62500 / nal_hrd=none / filler=0 / ip_ratio=1.40 / pb_ratio=1.30 / aq=3:0.80
Язык                                     : English
Default                                  : Yes
Forced                                   : No
Цветовой диапазон                        : Limited
Основные цвета                           : BT.709
Характеристики трансфера                 : BT.709
Коэффициенты матрицы                     : BT.709

Audio #1
Идентификатор                            : 2
Формат                                   : AC-3
Формат/Информация                        : Audio Coding 3
Идентификатор кодека                     : A_AC3
Продолжительность                        : 1 h 47 min
Вид битрейта                             : Constant
Битрейт                                  : 384 kb/s
Каналы                                   : 6 channels
Расположение каналов                     : Front: L C R, Side: L R, LFE
Частота                                  : 48.0 kHz
Частота кадров                           : 31.250 FPS (1536 SPF)
Битовая глубина                          : 16 bits
Метод сжатия                             : Lossy
Размер потока                            : 295 MiB (6%)
Язык                                     : Russian
Default                                  : Yes
Forced                                   : No

Audio #2
Идентификатор                            : 3
Формат                                   : AC-3
Формат/Информация                        : Audio Coding 3
Идентификатор кодека                     : A_AC3
Продолжительность                        : 1 h 47 min
Вид битрейта                             : Constant
Битрейт                                  : 640 kb/s
Каналы                                   : 6 channels
Расположение каналов                     : Front: L C R, Side: L R, LFE
Частота                                  : 48.0 kHz
Частота кадров                           : 31.250 FPS (1536 SPF)
Битовая глубина                          : 16 bits
Метод сжатия                             : Lossy
Размер потока                            : 492 MiB (11%)
Язык                                     : English
Default                                  : No
Forced                                   : No

Menu
00:00:00.000                             : :Chapter 01
00:14:04.000                             : :Chapter 02
00:25:49.500                             : :Chapter 03
00:39:30.208                             : :Chapter 04
00:52:09.291                             : :Chapter 05
01:04:45.125                             : :Chapter 06
01:18:07.916                             : :Chapter 07
01:27:42.375                             : :Chapter 08




Скриншоты:
[+] Всего файлов в раздаче - 1:
Muse.2017.BDRip720p.mkv4.52 GB

Текущая раздача:
ДатаКомментарии    РазмерПиры
2018-06-29 U Муза смерти / Muse (2017) BDRip 720p | iTunes 4.52 GB ↑ 55 ↓ 49

Показать еще раздачи по запросу муза:
2018-07-21 U Муза смерти / Muse (2017) BDRip от ExKinoRay | iTunes 1.41 GB ↑ 92 ↓ 10
2018-06-30 U Муза смерти / Muse (2017) BDRip-AVC от HELLYWOOD | iTunes 1.40 GB ↑ 87 ↓ 32
2018-06-30 U Муза смерти / Muse (2017) BDRemux 1080p от ExKinoRay | FRA Transfer | iTunes 27.64 GB ↑ 16 ↓ 19
2018-06-30 U Муза смерти / Muse (2017) HDRip-AVC от ExKinoRay | iTunes 742.07 MB ↑ 24 ↓ 15
2018-06-29 U Муза смерти / Muse (2017) BDRip от MegaPeer | iTunes 745.63 MB ↑ 117 ↓ 36
2018-06-29 U Муза смерти / Muse (2017) BDRip от MegaPeer | iTunes 1.41 GB ↑ 95 ↓ 69
2018-06-29 U Муза смерти / Muse (2017) BDRip 1080p | iTunes 7.90 GB ↑ 51 ↓ 64

Отзывы
Зарегистрируйтесь чтобы добавить комментарий.
Обратная связь
Copyleft ©