↑↓Torrent.by
Поиск
Логин: Регистрация
Пароль: Восстановить пароль
Загрузка...

Правдоподобные истории Нила Геймана / Neil Gaiman's Likely Stories [S01] (2016) HDTVRip 720p | GreenРай Studio

Скачать pravdopodobnye-istorii-nila-geymana-neil-gaiman-s-likely-stories-s01-2016-hdtvrip-720p-greenray-studio.torrent
U Магнитная ссылка Размер: 2.43 GB Раздают: 75 Качают: 3 Добавлен: 2018-06-30 07:08:24
Правдоподобные истории Нила Геймана / Neil Gaiman's Likely Stories [S01] (2016) HDTVRip 720p | GreenРай Studio

Год выхода: 2016
Наименование: Правдоподобные истории Нила Геймана
Оригинальное наименование: Neil Gaiman's Likely Stories
Страна: Великобритания
Жанр:  ужасы, драма
Режиссер постановщик: Ян Форсис, Джейн Поллард
В главных ролях: Монтсеррат Ломбард, Моника Долан, Пол Риттер, Кирк Лэйк, Хлоя Хейуорд, Саймон Маньонда, Денис Гоф, Йохан Майерс, Нил Гейман

О фильме: В новелле «Чужие члены» главный герой страдает тяжелым психическим расстройством - парню кажется, что его гениталии живут собственной жизнью. История «Кто-то кормит, кто-то ест» рассказывает о непростых отношениях между молодым мужчиной и пожилой женщиной. История «После закрытия» посвящена теме приведений в старинном доме. А герой рассказа «В поисках девушки» умудряется влюбиться в образ, увиденный в порно-журнале.

Файл
Качество:  HDTVRip 720p
Видео данные: MKV, 1280x536 (2.40:1), 25.000 fps, 3047 Кбит/с
Аудио данные: AC3, 2 ch, 192 Кбит/с
Перевод: Любительский многоголосый (GreenРай Studio)
Продолжительность: 4 x 00:22:00

Внимание, имеется  видео и аудио реклама от спонсора показа

Релиз:


[+] Медиаинфо
General
Unique ID                                : 244951691923263503373721594719785909797 (0xB847FAD6D0E9A05B9FE0228800B6FE25)
Complete name                            : E:ГРИНРАЙNeil.Gaimans.Likely.StoriesS01.720pNeil.Gaimans.Likely.Stories.S01E01.HDTVRip.720p.mkv
Format                                   : Matroska
Format version                           : Version 4 / Version 2
File size                                : 566 MiB
Duration                                 : 23 min 55 s
Overall bit rate                         : 3 305 kb/s
Encoded date                             : UTC 2018-06-28 14:01:05
Writing application                      : mkvmerge v6.5.0 ('Isn't she lovely') built on Oct 20 2013 12:50:05
Writing library                          : libebml v1.3.0 + libmatroska v1.4.1

Video
ID                                       : 1
Format                                   : AVC
Format/Info                              : Advanced Video Codec
Format profile                           : High@L3.1
Format settings                          : CABAC / 4 Ref Frames
Format settings, CABAC                   : Yes
Format settings, RefFrames               : 4 frames
Codec ID                                 : V_MPEG4/ISO/AVC
Duration                                 : 23 min 55 s
Bit rate                                 : 3 047 kb/s
Width                                    : 1 280 pixels
Height                                   : 536 pixels
Display aspect ratio                     : 2.40:1
Frame rate mode                          : Constant
Frame rate                               : 25.000 FPS
Color space                              : YUV
Chroma subsampling                       : 4:2:0
Bit depth                                : 8 bits
Scan type                                : Progressive
Bits/(Pixel*Frame)                       : 0.178
Stream size                              : 522 MiB (92%)
Writing library                          : x264 core 146 r2538 121396c
Encoding settings                        : cabac=1 / ref=1 / deblock=1:0:0 / analyse=0x3:0x113 / me=hex / subme=2 / psy=1 / psy_rd=1.00:0.00 / mixed_ref=0 / me_range=16 / chroma_me=1 / trellis=0 / 8x8dct=1 / cqm=0 / deadzone=21,11 / fast_pskip=1 / chroma_qp_offset=0 / threads=9 / lookahead_threads=3 / sliced_threads=0 / nr=0 / decimate=1 / interlaced=0 / bluray_compat=0 / constrained_intra=0 / bframes=3 / b_pyramid=2 / b_adapt=1 / b_bias=0 / direct=1 / weightb=1 / open_gop=0 / weightp=1 / keyint=250 / keyint_min=25 / scenecut=40 / intra_refresh=0 / rc_lookahead=10 / rc=crf / mbtree=1 / crf=13.0 / qcomp=0.60 / qpmin=0 / qpmax=69 / qpstep=4 / ip_ratio=1.40 / aq=1:1.00
Default                                  : Yes
Forced                                   : No

Audio
ID                                       : 2
Format                                   : AC-3
Format/Info                              : Audio Coding 3
Codec ID                                 : A_AC3
Duration                                 : 23 min 55 s
Bit rate mode                            : Constant
Bit rate                                 : 192 kb/s
Channel(s)                               : 2 channels
Channel positions                        : Front: L R
Sampling rate                            : 48.0 kHz
Frame rate                               : 31.250 FPS (1536 SPF)
Bit depth                                : 16 bits
Compression mode                         : Lossy
Stream size                              : 32.9 MiB (6%)
Service kind                             : Complete Main
Default                                  : Yes
Forced                                   : No



Скриншоты:
[+] Всего файлов в раздаче - 4:
Neil.Gaimans.Likely.Stories.S01E01.HDTVRip.720p.mkv565.62 MB
Neil.Gaimans.Likely.Stories.S01E02.HDTVRip.720p.mkv614.16 MB
Neil.Gaimans.Likely.Stories.S01E03.HDTVRip.720p.mkv616.57 MB
Neil.Gaimans.Likely.Stories.S01E04.HDTVRip.720p.mkv694.33 MB

Отзывы
Зарегистрируйтесь чтобы добавить комментарий.
Обратная связь
Copyleft ©