↑↓Torrent.by
Поиск
Логин: Регистрация
Пароль: Восстановить пароль
Загрузка...

Твоё имя / Kimi no Na wa / Your Name (2016) BDRip-AVC от OlLanDGroup | P

Скачать tvoe-imya-kimi-no-na-wa-your-name-2016-bdrip-avc-ot-ollandgroup-p.torrent
U Магнитная ссылка Размер: 1.49 GB Раздают: 35 Качают: 2 Добавлен: 2018-06-30 07:14:05
Твоё имя / Kimi no Na wa / Your Name (2016) BDRip-AVC от OlLanDGroup | P

Твоё имя / Kimi no Na wa (Your Name)
«Я ищу тебя, хотя не знаю, кто ты»

Год выпуска: 2016
Страна: Япония
Производство: CoMix Wave Films
Жанр:  Аниме, мультфильм, фэнтези, драма, мелодрама

Режиссёр: Макото Синкай
В ролях: Монэ Камисирайси, Рюноскэ Камики, Кана Ханадзава, Эцуко Итихара, Масами Нагасава, Рё Нарита, Нобунага Симадзаки, Кэнон Тани, Аой Юки

Перевод: Профессиональный (многоголосый, закадровый) | AlexFilm
Субтитры: Русские, английские
Реклама: Отсутствует

Описание: История о парне из Токио и девушке из провинции, которые обнаруживают, что между ними существует странная и необъяснимая связь. Во сне они меняются телами и проживают жизни друг друга. Но однажды эта способность исчезает так же внезапно, как появилась. Таки решает во что бы то ни стало отыскать Мицуху, но способны ли они узнать друг друга в реальной жизни?

Качество: BDRip-AVC
Продолжительность: 01:46:26

Формат: MKV
Видео кодек: MPEG-4 AVC
Аудио кодек: AC3
Видео: 1024x576 (16:9), 23.976 fps, x264 ~1555 kbps avg, 0.110 bit/pixel
Аудио #1: 48 kHz, AC3 Dolby Digital, 3/2 (L,C,R,l,r) + LFE ch, ~448.00 kbps avg | RUS (AlexFilm)

Дата премьеры (мир): 21 июня 2017
Дата премьеры (РФ): 22 июня 2017, «Централ Партнершип»

Релиз: Rip by:


[+] MediaInfo

Общее
Уникальный идентификатор                 : 222069505660185025487213303442846776128 (0xA71107F41CFBE5528C7AD7D9CA1BFB40)
Полное имя                               : E:OlLanDGroupKimi.no.na.wa.aka.Your.Name.2016.BDRip(AVC).OlLanDGroup.mkv
Формат                                   : Matroska
Версия формата                           : Version 2
Размер файла                             : 1,49 Гбайт
Продолжительность                        : 1 ч. 46 м.
Общий поток                              : 2002 Кбит/сек
Название фильма                          : Kimi.no.na.wa.aka.Your.Name.2016   #TorpedoUK#
Дата кодирования                         : UTC 2017-10-24 07:42:12
Программа кодирования                    : mkvmerge v7.8.0 ('River Man') 32bit built on Apr  3 2015 12:11:22
Библиотека кодирования                   : libebml v1.3.1 + libmatroska v1.4.2
Обложка                                  : Yes
Attachments                              : cover_land.jpg / small_cover.jpg / small_cover_land.jpg / cover.jpg

Видео
Идентификатор                            : 1
Формат                                   : AVC
Формат/Информация                        : Advanced Video Codec
Профиль формата                          : High@L4.1
Параметр CABAC формата                   : Да
Параметр ReFrames формата                : 10 кадров
Идентификатор кодека                     : V_MPEG4/ISO/AVC
Продолжительность                        : 1 ч. 46 м.
Битрейт                                  : 1555 Кбит/сек
Ширина                                   : 1024 пикселя
Высота                                   : 576 пикселей
Соотношение сторон                       : 16:9
Режим частоты кадров                     : Постоянный
Частота кадров                           : 23,976 (24000/1001) кадра/сек
Цветовое пространство                    : YUV
Субдискретизация насыщенности            : 4:2:0
Битовая глубина                          : 8 бит
Тип развёртки                            : Прогрессивная
Бит/(Пиксели*Кадры)                      : 0.110
Размер потока                            : 1,13 Гбайт (76%)
Библиотека кодирования                   : x264 core 146 r2538 121396c
Настройки программы                      : cabac=1 / ref=10 / deblock=1:-3:-3 / analyse=0x3:0x133 / me=umh / subme=11 / psy=1 / psy_rd=1.00:0.03 / mixed_ref=1 / me_range=48 / chroma_me=1 / trellis=2 / 8x8dct=1 / cqm=0 / deadzone=21,11 / fast_pskip=1 / chroma_qp_offset=-3 / threads=6 / lookahead_threads=1 / sliced_threads=0 / nr=0 / decimate=1 / interlaced=0 / bluray_compat=0 / constrained_intra=0 / bframes=10 / b_pyramid=2 / b_adapt=2 / b_bias=0 / direct=3 / weightb=1 / open_gop=0 / weightp=2 / keyint=240 / keyint_min=23 / scenecut=40 / intra_refresh=0 / rc_lookahead=40 / rc=2pass / mbtree=0 / bitrate=1555 / ratetol=1.0 / qcomp=0.60 / qpmin=0 / qpmax=69 / qpstep=4 / cplxblur=20.0 / qblur=0.5 / vbv_maxrate=50000 / vbv_bufsize=62500 / nal_hrd=none / filler=0 / ip_ratio=1.40 / pb_ratio=1.30 / aq=1:1.00
Язык                                     : English
Default                                  : Да
Forced                                   : Нет

Аудио
Идентификатор                            : 2
Формат                                   : AC-3
Формат/Информация                        : Audio Coding 3
Расширение режима                        : CM (complete main)
Параметр Endianness формата              : Big
Идентификатор кодека                     : A_AC3
Продолжительность                        : 1 ч. 46 м.
Вид битрейта                             : Постоянный
Битрейт                                  : 448 Кбит/сек
Каналы                                   : 6 каналов
Расположение каналов                     : Front: L C R, Side: L R, LFE
Частота                                  : 48,0 КГц
Частота кадров                           : 31,250 кадров/сек (1536 spf)
Битовая глубина                          : 16 бит
Метод сжатия                             : С потерями
Размер потока                            : 342 Мбайт (22%)
Заголовок                                : AlexFilm
Язык                                     : Russian
Default                                  : Да
Forced                                   : Нет

Текст #1
Идентификатор                            : 3
Формат                                   : UTF-8
Идентификатор кодека                     : S_TEXT/UTF8
Идентификатор кодека/Информация          : UTF-8 Plain Text
Заголовок                                : Rus full AlexFilm
Язык                                     : Russian
Default                                  : Нет
Forced                                   : Нет

Текст #2
Идентификатор                            : 4
Формат                                   : UTF-8
Идентификатор кодека                     : S_TEXT/UTF8
Идентификатор кодека/Информация          : UTF-8 Plain Text
Заголовок                                : Eng full
Язык                                     : English
Default                                  : Нет
Forced                                   : Нет

Меню
00:00:00.000                             : :Echo
00:01:34.094                             : :Opening
00:03:21.868                             : :Beginning
00:05:13.271                             : :Miyamizu Family
00:08:37.308                             : :Who Are You?
00:12:11.314                             : :Kumihimo
00:14:32.371                             : :Kuchikamizake
00:17:22.500                             : :Tokyo
00:22:57.918                             : :Okudera-senpai
00:27:05.624                             : :Accident 1
00:28:16.570                             : :Accident 2
00:29:53.542                             : :Day by Day
00:32:42.836                             : :Object of Worship
00:37:26.995                             : :Date
00:41:57.765                             : :Autumn Festival
00:44:30.334                             : :Disconnection
00:45:54.001                             : :Searching
00:48:28.656                             : :Itomori Town that Disappeared
00:53:01.387                             : :Pursuit
00:56:53.869                             : :Recollection
01:03:42.318                             : :Replay
01:06:03.793                             : :Strategy Meeting
01:09:44.931                             : :Premonition
01:12:41.816                             : :Chance Meeting
01:16:42.473                             : :Twilight
01:21:21.710                             : :Beautiful, Struggling
01:29:12.806                             : :Love
01:32:51.858                             : :Just a Little Longer
01:37:01.733                             : :Your Name.
01:41:19.615                             : :Staff Roll



Скриншоты:
[+] Всего файлов в раздаче - 1:
Kimi.no.na.wa.aka.Your.Name.2016.BDRip(AVC).OlLanDGroup.mkv1.49 GB

Текущая раздача:
ДатаКомментарии    РазмерПиры
2018-06-30 U Твоё имя / Kimi no Na wa / Your Name (2016) BDRip-AVC от OlLanDGroup | P 2 К 1.49 GB ↑ 35 ↓ 2

Похожие раздачи по запросу - kimi:
2018-06-26 U Твоё имя / Kimi no na wa (2016) BDRip 1080p от New-Team & qqss44 | P 4.36 GB ↑ 103 ↓ 5
2017-10-13 U Твоё имя / Kimi no na wa (2016) BDRip 1080p | AlexFilm 13.38 GB ↑ 502 ↓ 51
2017-10-13 U Твоё имя / Kimi no Na wa (2016) BDRip-HEVC 1080p | P, L2 1К1.44 GB ↑ 1636 ↓ 91
2017-09-29 U Твоё имя / Kimi no na wa (2016) BDRip 720p от NNNB | P 5.20 GB ↑ 181 ↓ 31
2013-11-12 U Ты научил меня важным вещам / Taisetsu na Koto wa Subete Kimi ga Oshiete Kureta [01-10 из 10] (2011) HDTVRip 7.03 GB ↑ 13 ↓ 10
2013-10-30 U Город, в котором ты живешь / Kimi no Iru Machi [01-12 из 12] (2013) HDTV 720p | L2 2.45 GB ↑ 31 ↓ 12

Отзывы
Antonio 1993
Очень понравилось, финал чуть подзатянули аж сердце побаливать от волнения начало.

38807
Спасибо за компактный размер без потери качества! Релизёру респект!
Спасибо за настроение! За превосходную историю и настоящую красоту!
Вот она сила Искусства! Это, действительно, волшебство!
М.Синкай совершенен. Гений нашего времени. Не перестаёт жизнь предлагать!
Профессионально озвучено. Голоса подобраны правильно...
*
Кто-то "Матрицу времени" считает хорошим фильмом. Но в нём нет души...
В этой картине есть сила, настоящие эмоции, сильные чувства!
Обязана быть в коллекции человека, знающего цену искусства!

Зарегистрируйтесь чтобы добавить комментарий.
Обратная связь
Copyleft ©