↑↓torrent.by
Поиск
Логин: Регистрация
Пароль: Восстановить пароль

Турист (2021) WEB-DL 1080p от ELEKTRI4KA | iTunes

Скачать turist-2021-web-dl-1080p-ot-elektri4ka-itunes.torrent
U Магнитная ссылка Размер: 3.52 GB Раздают: 189 Качают: 41 Добавлен: 2021-05-25 06:12:09
Турист (2021) WEB-DL 1080p от ELEKTRI4KA | iTunes

Название: Турист
Год выхода: 2021
Жанр: Боевик
Режиссер: Андрей Батов
В ролях: Алексей Шевченков, Евгений Терских, Александр Барановский, Владимир Петров (VIII), Сергей Воробьёв (IV), Георгий Болонев, Глеб Темнов, Сергей Гарусов, Флавия-Гертруда Мбайабе, Уилфред Уильямс

О фильме: Декабрь 2020 года. Бывший сотрудник полиции Гриша Дмитриев в составе небольшой группы российских инструкторов прибывает в Центральноафриканскую Республику. Грише командировка не кажется сложной, ведь в задачи инструкторов входит только обучение солдат местной армии основам тактики и методам ведения боя. Однако все с самого начала идет не так. Несколько бандитских группировок идут на столицу, чтобы устроить в стране государственный переворот. Русские инструкторы совместно со своими подопечными дают отпор бандитам. Но для Гриши, никогда не принимавшего участие в военных действиях, эта командировка превращается в настоящий ад.

Выпущено: Россия / Производство ООО "Паритет Фильм"
Продолжительность: 01:39:09
Озвучивание: Оригинальное | iTunes

Файл
Формат: MKV
Качество: WEB-DL 1080p
Видео: MPEG-4 AVC, 4761 Kb/s, 1920x804
Аудио #1: Russian: 48 kHz, AC3 Dolby Digital, 2/0 (L, R) ch, ~192 Kbps | iTunes
Аудио #2: Russian: 48 kHz, Advanced Audio Codec, 2/0 (L, R) ch, ~126 Kbps | iTunes
Субтитры: Нет
Дополнительно: Сохранены оригинальные чаптеры.

Релиз: &


[+] MediaInfo:
Complete name: Turist.2021.WEB-DL.1080p.ELEKTRI4KA.UNIONGANG.mkv
Format: Matroska
Format version: Version 4
File size: 3.52 GiB
Duration: 1 h 39 min
Overall bit rate: 5 081 kb/s
Movie name: Turist.2021.WEB-DL.1080p.ELEKTRI4KA.UNIONGANG.
Encoded date: UTC 2021-05-24 10:51:05
Writing application: mkvmerge v8.3.0 ('Over the Horizon') 64bit
Writing library: libebml v1.3.1 + libmatroska v1.4.2

Video
ID: 1
Format: AVC
Format/Info: Advanced Video Codec
Format profile: High@L4
Format settings: CABAC / 5 Ref Frames
Format settings, CABAC: Yes
Format settings, Reference frames: 5 frames
Codec ID: V_MPEG4/ISO/AVC
Duration: 1 h 39 min
Bit rate: 4 761 kb/s
Width: 1 920 pixels
Height: 804 pixels
Display aspect ratio: 2.40:1
Frame rate mode: Constant
Frame rate: 24.000 FPS
Color space: YUV
Chroma subsampling: 4:2:0
Bit depth: 8 bits
Scan type: Progressive
Bits/(Pixel*Frame): 0.128
Stream size: 3.30 GiB (94%)
Language: English
Default: Yes
Forced: No
Color range: Limited
Color primaries: BT.709
Transfer characteristics: BT.709
Matrix coefficients: BT.709

Audio #1
ID: 2
Format: AC-3
Format/Info: Audio Coding 3
Commercial name: Dolby Digital
Codec ID: A_AC3
Duration: 1 h 39 min
Bit rate mode: Constant
Bit rate: 192 kb/s
Channel(s): 2 channels
Channel layout: L R
Sampling rate: 48.0 kHz
Frame rate: 31.250 FPS (1536 SPF)
Compression mode: Lossy
Stream size: 136 MiB (4%)
Title: Original AC3 (iTunes)
Language: Russian
Service kind: Complete Main
Default: Yes
Forced: Yes

Audio #2
ID: 3
Format: AAC LC
Format/Info: Advanced Audio Codec Low Complexity
Codec ID: A_AAC-2
Duration: 1 h 39 min
Bit rate: 126 kb/s
Channel(s): 2 channels
Channel layout: L R
Sampling rate: 48.0 kHz
Frame rate: 46.875 FPS (1024 SPF)
Compression mode: Lossy
Stream size: 89.4 MiB (2%)
Title: Original AAC (iTunes)
Language: Russian
Default: No
Forced: No

Menu
00:00:00.000: en:Глава 1
00:02:30.208: en:Глава 2
00:09:02.666: en:Глава 3
00:15:44.582: en:Глава 4
00:20:52.457: en:Глава 5
00:27:01.540: en:Глава 6
00:34:37.290: en:Глава 7
00:38:49.706: en:Глава 8
00:42:49.039: en:Глава 9
00:51:48.580: en:Глава 10
00:59:37.330: en:Глава 11
01:04:22.371: en:Глава 12
01:12:25.412: en:Глава 13
01:18:47.703: en:Глава 14
01:23:59.994: en:Глава 15
01:31:05.494: en:Глава 16
01:35:08.369: en:Глава 17



Скриншоты:
[+] Всего файлов в раздаче - 1:

Показать еще раздачи по запросу турист:
2021-06-29 U Турист (2021) WEB-DLRip-AVC 2.61 GB ↑ 165 ↓ 19
2021-06-28 U Турист (2021) WEB-DL 1080p от EniaHD 4.55 GB ↑ 142 ↓ 58
2021-05-30 U Турист (2021) WEB-DLRip от Files-x | iTunes 1.46 GB ↑ 47 ↓ 27
2021-05-28 U Турист (2021) WEB-DLRip-AVC от Files-x | iTunes 1.46 GB ↑ 368 ↓ 25
2021-05-26 U Турист (2021) WEB-DLRip-AVC | iTunes 1.41 GB ↑ 342 ↓ 59
2021-05-25 U Турист (2021) WEB-DLRip от ExKinoRay | iTunes 745.36 MB ↑ 326 ↓ 29
2021-05-25 U Турист (2021) WEB-DLRip от ELEKTRI4KA | iTunes 1.46 GB ↑ 332 ↓ 28

Отзывы
Зарегистрируйтесь чтобы добавить комментарий.
Программа byTorrent
  Описание byTorrent
Обратная связь
Copyleft ©