↑↓Torrent.by
Поиск
Логин: Регистрация
Пароль: Восстановить пароль
Загрузка...

Гномы в доме / Gnome Alone (2017) BDRip 1080p | iTunes

Скачать gnomy-v-dome-gnome-alone-2017-bdrip-1080p-itunes.torrent
U Магнитная ссылка Размер: 6.34 GB Раздают: 89 Качают: 49 Добавлен: 2018-06-30 21:38:09
Гномы в доме / Gnome Alone (2017) BDRip 1080p | iTunes

Название: Гномы в доме
Оригинальное название: Gnome Alone
Год выхода: 2017
Жанр: Мультфильм, приключения, семейный, полнометражный
Режиссер: Питер Лепениотис
В ролях: Бекки Джи, Джош Пек, Тара Стронг, Оливия Холт, Дэвид Кёкнер, Джефф Данэм, Патрик Стамп, Нэш Гриер, Мэдисон Де Ла Гарза, Джордж Лопес

О фильме:
Хлоя вместе с мамой в очередной раз переезжает в новый дом. В этот раз они поселились в старинном скрипучем доме Франкенштейна по соседству с забавным парнем-неудачником Лиамом. Выглядит очень зловеще. В доме Хлоя находит маленьких садовых гномов, которые почему-то не в саду. Но когда в наш мир пытаются пробраться чудища трогги, гномы оживают и дают настоящий бой этим монстрам. И они просят Хлою помочь, ведь самим им будет невероятно сложно. Внешне неуверенные в себе Хлоя и Лиам должны стать настоящими бойцами, чемпионами, которыми они являются внутри. Не важно кто мы внешне, главное – какие мы на самом деле.

Страна: Канада, Великобритания, США
Студия: 3QU Media
Продолжительность: 01:25:15
Перевод: Дублированный | iTunes

Файл
Кодек: x.264
Качество: BDRip 1080p
Видео: MPEG-4 AVC, 1920x1040, 9500 Kбит/с, 23.976 кадр/с
Аудио #1: Русский ( АС3, 6ch, 384 Кбит/с, 48.0 KHz) Профессиональный (Дублированный) iTunes
Аудио #2: Украинский ( AC3, 6ch, 384 Кбит/с, 48.0 KHz) Профессиональный (Дублированный) iTunes
Аудио #3: Английский ( AC3, 6ch, 384 Кбит/с, 48.0 KHz)
Субтитры: нет


[+] MediaInfo
Источник: Gnome.Alone.2017.1080p.BluRay.x264-JustWatch
General
Unique ID                      : 247437691058153703076541123932658938231 (0xBA26C40F434E660EBC877CAC1DA93177)
Complete name                  : Gnome.Alone.2017.BDRip.1080p.mkv
Format                         : Matroska
Format version                 : Version 4 / Version 2
File size                      : 6.34 GiB
Duration                       : 1 h 25 min
Overall bit rate               : 10.6 Mb/s
Encoded date                   : UTC 2018-06-30 12:54:21
Writing application            : mkvmerge v7.1.0 ('Good Love') 64bit built on Jul 27 2014 13:06:55
Writing library                : libebml v1.3.0 + libmatroska v1.4.1

Video
ID                             : 1
Format                         : AVC
Format/Info                    : Advanced Video Codec
Format profile                 : High@L4.1
Format settings                : CABAC / 4 Ref Frames
Format settings, CABAC         : Yes
Format settings, ReFrames      : 4 frames
Codec ID                       : V_MPEG4/ISO/AVC
Duration                       : 1 h 25 min
Bit rate                       : 9 500 kb/s
Width                          : 1 920 pixels
Height                         : 1 040 pixels
Display aspect ratio           : 1.85:1
Frame rate mode                : Constant
Frame rate                     : 23.976 (24000/1001) FPS
Color space                    : YUV
Chroma subsampling             : 4:2:0
Bit depth                      : 8 bits
Scan type                      : Progressive
Bits/(Pixel*Frame)             : 0.198
Stream size                    : 5.65 GiB (89%)
Writing library                : x264 core 155 r2901 7d0ff22
Encoding settings              : cabac=1 / ref=4 / deblock=1:-2:-2 / analyse=0x3:0x113 / me=umh / subme=8 / psy=1 / psy_rd=1.00:0.00 / mixed_ref=1 / me_range=16 / chroma_me=1 / trellis=2 / 8x8dct=1 / cqm=0 / deadzone=21,11 / fast_pskip=1 / chroma_qp_offset=-2 / threads=32 / lookahead_threads=5 / sliced_threads=0 / nr=0 / decimate=1 / interlaced=0 / bluray_compat=0 / constrained_intra=0 / bframes=3 / b_pyramid=2 / b_adapt=2 / b_bias=0 / direct=3 / weightb=1 / open_gop=0 / weightp=2 / keyint=240 / keyint_min=24 / scenecut=40 / intra_refresh=0 / rc_lookahead=50 / rc=2pass / mbtree=1 / bitrate=9500 / ratetol=1.0 / qcomp=0.60 / qpmin=0 / qpmax=69 / qpstep=4 / cplxblur=20.0 / qblur=0.5 / ip_ratio=1.40 / aq=1:1.00
Language                       : English
Default                        : Yes
Forced                         : No

Audio #1
ID                             : 2
Format                         : AC-3
Format/Info                    : Audio Coding 3
Codec ID                       : A_AC3
Duration                       : 1 h 25 min
Bit rate mode                  : Constant
Bit rate                       : 384 kb/s
Channel(s)                     : 6 channels
Channel positions              : Front: L C R, Side: L R, LFE
Sampling rate                  : 48.0 kHz
Frame rate                     : 31.250 FPS (1536 SPF)
Bit depth                      : 16 bits
Compression mode               : Lossy
Stream size                    : 234 MiB (4%)
Language                       : Russian
Service kind                   : Complete Main
Default                        : Yes
Forced                         : No

Audio #2
ID                             : 3
Format                         : AC-3
Format/Info                    : Audio Coding 3
Codec ID                       : A_AC3
Duration                       : 1 h 25 min
Bit rate mode                  : Constant
Bit rate                       : 384 kb/s
Channel(s)                     : 6 channels
Channel positions              : Front: L C R, Side: L R, LFE
Sampling rate                  : 48.0 kHz
Frame rate                     : 31.250 FPS (1536 SPF)
Bit depth                      : 16 bits
Compression mode               : Lossy
Stream size                    : 234 MiB (4%)
Language                       : Ukrainian
Service kind                   : Complete Main
Default                        : No
Forced                         : No

Audio #3
ID                             : 4
Format                         : AC-3
Format/Info                    : Audio Coding 3
Codec ID                       : A_AC3
Duration                       : 1 h 25 min
Bit rate mode                  : Constant
Bit rate                       : 384 kb/s
Channel(s)                     : 6 channels
Channel positions              : Front: L C R, Side: L R, LFE
Sampling rate                  : 48.0 kHz
Frame rate                     : 31.250 FPS (1536 SPF)
Bit depth                      : 16 bits
Compression mode               : Lossy
Stream size                    : 234 MiB (4%)
Language                       : English
Service kind                   : Complete Main
Default                        : No
Forced                         : No

Menu
00:00:00.000                   : en:00:00:00.000
00:07:22.651                   : en:00:07:22.651
00:14:43.841                   : en:00:14:43.841
00:20:28.519                   : en:00:20:28.519
00:26:10.778                   : en:00:26:10.778
00:32:48.466                   : en:00:32:48.466
00:38:50.703                   : en:00:38:50.703
00:46:32.248                   : en:00:46:32.248
00:53:05.724                   : en:00:53:05.724
00:59:11.131                   : en:00:59:11.131
01:06:13.386                   : en:01:06:13.386
01:14:18.996                   : en:01:14:18.996



Скриншоты:
[+] Всего файлов в раздаче - 1:
Gnome.Alone.2017.BDRip.1080p.mkv6.34 GB

Текущая раздача:
ДатаКомментарии    РазмерПиры
2018-06-30 U Гномы в доме / Gnome Alone (2017) BDRip 1080p | iTunes 6.34 GB ↑ 89 ↓ 49

Похожие раздачи по запросу - гномы:
2018-07-16 U Гномы в доме / Gnome Alone (2017) BDRip от ExKinoRay | iTunes 1.42 GB ↑ 37 ↓ 18
2013-11-01 U Гномы и тролли: Секретная кладовая / Gnomes and Trolls: The Secret Chamber (2008) DVD5 | P | Лицензия 3.69 GB ↑ 22 ↓ 27

Отзывы
Зарегистрируйтесь чтобы добавить комментарий.
Обратная связь
Copyleft ©