↑↓Torrent.by
Поиск
Логин: Регистрация
Пароль: Восстановить пароль
Загрузка...

Искаженный / Distorted (2018) WEB-DL 720p от ExKinoRay | HDRezka Studio

Скачать iskazhennyy-distorted-2018-web-dl-720p-ot-exkinoray-hdrezka-studio.torrent
U Магнитная ссылка Размер: 2.77 GB Раздают: 166 Качают: 44 Добавлен: 2018-07-02 09:11:14
Искаженный / Distorted (2018) WEB-DL 720p от ExKinoRay | HDRezka Studio

Название: Искаженный
Оригинальное название: Distorted
Год выхода: 2018
Жанр: Боевик, триллер, детектив
Режиссер: Роб В. Кинг
В ролях: Кристина Риччи, Джон Кьюсак, Брендан Флетчер, Виселос Реон Шеннон, Николь Энтони, Оливер Райс, Гиги Джекман, Майя Милькович, Бенжамин ДеУолт

О фильме: В центре сюжета - художница с биполярным расстройством, недавно потерявшая ребёнка. Из-за тяжёлых воспоминаний она переезжает вместе с мужем из собственного дома в квартиру в многоэтажном здании, оснащённом супертехнологичной системой безопасности. Вскоре героиня замечает, что с другими жителями многоэтажки творится что-то неладное, и нанимает журналиста из отдела расследований.

Страна: Канада
Студия: Bridgegate Pictures, Minds Eye Entertainment
Продолжительность: 01:26:18
Перевод: Профессиональный многоголосый | HDRezka Studio

Качество: WEB-DL 720p
Видео: MPEG-4 AVC, 1280x532, 4014 Kbit/s, 23.976 fps
Звук:
Аудио #01: 48 kHz, AC3, 2.1, 192 Kbps | HDRezka Studio | RUS |
Аудио #02: 48 kHz, AC3, 5.1, 384 Kbps | Оригинал |  ENG |
Субтитры: Английские

Релиз: Автор релиза:


[+] MI
General
Unique ID                   : 122132617011955985392813835275034391375 (0x5BE1E2ED024E149D605AD9BEA3DB734F)
Complete name               : D:Video111Distorted.2018.WEB-DL.720p.ExKinoRay.mkv
Format                      : Matroska
Format version              : Version 4 / Version 2
File size                   : 2.77 GiB
Duration                    : 1 h 26 min
Overall bit rate            : 4 592 kb/s
Movie name                  : Distorted 2018 from ExKinoRay
Encoded date                : UTC 2018-07-02 04:16:34
Writing application         : mkvmerge v23.0.0 ('The Bride Said No') 64-bit
Writing library             : libebml v1.3.6 + libmatroska v1.4.9

Video
ID                          : 1
Format                      : AVC
Format/Info                 : Advanced Video Codec
Format profile              : Main@L3.1
Format settings             : 2 Ref Frames
Format settings, CABAC      : No
Format settings, ReFrames   : 2 frames
Codec ID                    : V_MPEG4/ISO/AVC
Duration                    : 1 h 26 min
Bit rate                    : 4 014 kb/s
Width                       : 1 280 pixels
Height                      : 532 pixels
Display aspect ratio        : 2.40:1
Frame rate mode             : Constant
Frame rate                  : 23.976 (24000/1001) FPS
Color space                 : YUV
Chroma subsampling          : 4:2:0
Bit depth                   : 8 bits
Scan type                   : Progressive
Bits/(Pixel*Frame)          : 0.246
Stream size                 : 2.42 GiB (87%)
Language                    : English
Default                     : Yes
Forced                      : No
Color range                 : Limited
Color primaries             : BT.709
Transfer characteristics    : BT.709
Matrix coefficients         : BT.709

Audio #1
ID                          : 2
Format                      : AC-3
Format/Info                 : Audio Coding 3
Codec ID                    : A_AC3
Duration                    : 1 h 26 min
Bit rate mode               : Constant
Bit rate                    : 192 kb/s
Channel(s)                  : 2 channels
Channel positions           : Front: L R
Sampling rate               : 48.0 kHz
Frame rate                  : 31.250 FPS (1536 SPF)
Bit depth                   : 16 bits
Compression mode            : Lossy
Delay relative to video     : -42 ms
Stream size                 : 119 MiB (4%)
Title                       : MVO [HDRezka Studio]
Language                    : Russian
Service kind                : Complete Main
Default                     : Yes
Forced                      : Yes

Audio #2
ID                          : 3
Format                      : AC-3
Format/Info                 : Audio Coding 3
Codec ID                    : A_AC3
Duration                    : 1 h 26 min
Bit rate mode               : Constant
Bit rate                    : 384 kb/s
Channel(s)                  : 6 channels
Channel positions           : Front: L C R, Side: L R, LFE
Sampling rate               : 48.0 kHz
Frame rate                  : 31.250 FPS (1536 SPF)
Bit depth                   : 16 bits
Compression mode            : Lossy
Delay relative to video     : -42 ms
Stream size                 : 237 MiB (8%)
Title                       : Original
Language                    : English
Service kind                : Complete Main
Default                     : No
Forced                      : No

Text
ID                          : 4
Format                      : UTF-8
Codec ID                    : S_TEXT/UTF8
Codec ID/Info               : UTF-8 Plain Text
Duration                    : 1 h 20 min
Bit rate                    : 29 b/s
Count of elements           : 550
Stream size                 : 17.4 KiB (0%)
Language                    : English
Default                     : No
Forced                      : No

Menu
00:00:00.000                : en:1
00:04:50.000                : en:2
00:09:00.000                : en:3
00:20:05.000                : en:4
00:29:39.000                : en:5
00:40:31.000                : en:6
00:50:47.000                : en:7
00:59:28.000                : en:8
01:10:00.000                : en:9
01:22:09.000                : en:10



Скриншоты:
[+] Всего файлов в раздаче - 1:
Distorted.2018.WEB-DL.720p.ExKinoRay.mkv2.77 GB

Текущая раздача:
ДатаКомментарии    РазмерПиры
2018-07-02 U Искаженный / Distorted (2018) WEB-DL 720p от ExKinoRay | HDRezka Studio 1 К 2.77 GB ↑ 166 ↓ 44

Похожие раздачи по запросу - искаженный:
2018-07-06 U Искаженный / Distorted (2018) WEB-DLRip-AVC от OlLanDGroup | HDRezka Studio 1.46 GB ↑ 93 ↓ 17
2018-07-02 U Искаженный / Distorted (2018) WEB-DLRip от R.G.Resident | HDRezka Studio 1.37 GB ↑ 241 ↓ 100
2018-07-02 U Искаженный / Distorted (2018) WEB-DL 1080p от ExKinoRay | HDRezka Studio 2.84 GB ↑ 59 ↓ 66

Отзывы
br br br
*щепка*, *ножницы*... хм, опять ктот-то решил из старой классики немножко кала в убогий кинопрокат добавить. жалко Кьюсака - отличный был актер, но - когда-то

Зарегистрируйтесь чтобы добавить комментарий.
Обратная связь
Copyleft ©