↑↓Torrent.by
Поиск
Логин: Регистрация
Пароль: Восстановить пароль
Загрузка...

Истерия / Delirium (2018) BDRip-AVC | Лицензия

Скачать isteriya-delirium-2018-bdrip-avc-licenziya.torrent
U Магнитная ссылка Размер: 2.18 GB Раздают: 134 Качают: 49 Добавлен: 2018-07-03 20:31:31
Истерия / Delirium (2018) BDRip-AVC | Лицензия

Название: Истерия
Оригинальное название: Delirium
Год выхода: 2018
Жанр: Ужасы, триллер
Страна: США
Перевод: Дублированный | Лицензия
Продолжительность: 01:35:59
Режиссер: Дэннис Илиадис
В ролях: Дженезис Родригез, Тофер Грейс, Патриша Кларксон, Каллэн Мулвей, Робин Томас, Дэйзи МакКрэкин, Келли Барксдэйл, Браден Фицджералд, Коуди Салливан, Марти Эли Шварц и др.

О фильме: Бывший пациент клиники для душевнобольных возвращается в роскошный особняк, доставшийся ему после смерти родителей. В этом доме прошло все его детство, и с ним связано много ярких воспоминаний. Но со временем в доме начинают происходить странные и пугающие вещи. Или это все — в его голове?

Файл
Формат: MKV
Качество: BDRip
Видео: MPEG-4 AVC, 1024x544, ~1970 kbps, 24,000 fps
Звук#1: русский, AC3 5.1, 48 kHz, 640 kbps | Лицензия
Звук#2: английский, AC3 5.1, 48 kHz, 640 kbps | оригинал
Субтитры: русские
[+] MI
General
Уникальный идентификатор                 : 252318029477331921285609858498906780807 (0xBDD2AF5231704FDBB3F4C062D18B7487)
Полное имя                               : F:TorrentDelirium2018BDRipAVC.mkv
Формат                                   : Matroska
Версия формата                           : Version 4 / Version 2
Размер файла                             : 2.18 GiB
Продолжительность                        : 1 h 35 min
Общий поток                              : 3 251 kb/s
Дата кодирования                         : UTC 2018-07-03 11:05:22
Программа кодирования                    : mkvmerge v9.5.0 ('Quiet Fire') 64bit
Библиотека кодирования                   : libebml v1.3.4 + libmatroska v1.4.5

Video
Идентификатор                            : 1
Формат                                   : AVC
Формат/Информация                        : Advanced Video Codec
Профиль формата                          : High@L4.1
Настройки формата                        : CABAC / 10 Ref Frames
Параметр CABAC формата                   : Yes
Параметр RefFrames формата               : 10 frames
Идентификатор кодека                     : V_MPEG4/ISO/AVC
Продолжительность                        : 1 h 35 min
Битрейт                                  : 1 970 kb/s
Ширина                                   : 1 024 pixels
Высота                                   : 554 pixels
Соотношение сторон                       : 1.85:1
Режим частоты кадров                     : Constant
Частота кадров                           : 24.000 FPS
Цветовое пространство                    : YUV
Субдискретизация насыщенности            : 4:2:0
Битовая глубина                          : 8 bits
Тип развёртки                            : Progressive
Бит/(Пиксели*Кадры)                      : 0.145
Размер потока                            : 1.32 GiB (61%)
Библиотека кодирования                   : x264 core 155 r2901M 7d0ff22
Настройки программы                      : cabac=1 / ref=10 / deblock=1:-3:-3 / analyse=0x3:0x133 / me=umh / subme=11 / psy=1 / psy_rd=1.00:0.00 / mixed_ref=1 / me_range=48 / chroma_me=1 / trellis=2 / 8x8dct=1 / cqm=0 / deadzone=21,11 / fast_pskip=0 / chroma_qp_offset=-2 / threads=5 / lookahead_threads=1 / sliced_threads=0 / nr=0 / decimate=0 / interlaced=0 / bluray_compat=0 / constrained_intra=0 / bframes=10 / b_pyramid=2 / b_adapt=2 / b_bias=0 / direct=3 / weightb=1 / open_gop=0 / weightp=2 / keyint=240 / keyint_min=24 / scenecut=40 / intra_refresh=0 / rc_lookahead=120 / rc=2pass / mbtree=0 / bitrate=1970 / ratetol=1.0 / qcomp=0.70 / qpmin=0 / qpmax=69 / qpstep=4 / cplxblur=20.0 / qblur=0.5 / vbv_maxrate=62500 / vbv_bufsize=78125 / nal_hrd=none / filler=0 / ip_ratio=1.40 / pb_ratio=1.30 / aq=1:1.00
Default                                  : Yes
Forced                                   : No
Цветовой диапазон                        : Limited
Основные цвета                           : BT.709
Характеристики трансфера                 : BT.709
Коэффициенты матрицы                     : BT.709

Audio #1
Идентификатор                            : 2
Формат                                   : AC-3
Формат/Информация                        : Audio Coding 3
Идентификатор кодека                     : A_AC3
Продолжительность                        : 1 h 35 min
Вид битрейта                             : Constant
Битрейт                                  : 640 kb/s
Каналы                                   : 6 channels
Расположение каналов                     : Front: L C R, Side: L R, LFE
Частота                                  : 48.0 kHz
Частота кадров                           : 31.250 FPS (1536 SPF)
Битовая глубина                          : 16 bits
Метод сжатия                             : Lossy
Размер потока                            : 439 MiB (20%)
Язык                                     : Russian
Default                                  : Yes
Forced                                   : No

Audio #2
Идентификатор                            : 3
Формат                                   : AC-3
Формат/Информация                        : Audio Coding 3
Идентификатор кодека                     : A_AC3
Продолжительность                        : 1 h 35 min
Вид битрейта                             : Constant
Битрейт                                  : 640 kb/s
Каналы                                   : 6 channels
Расположение каналов                     : Front: L C R, Side: L R, LFE
Частота                                  : 48.0 kHz
Частота кадров                           : 31.250 FPS (1536 SPF)
Битовая глубина                          : 16 bits
Метод сжатия                             : Lossy
Размер потока                            : 439 MiB (20%)
Язык                                     : English
Default                                  : No
Forced                                   : No

Text
Идентификатор                            : 4
Формат                                   : UTF-8
Идентификатор кодека                     : S_TEXT/UTF8
Идентификатор кодека/Информация          : UTF-8 Plain Text
Продолжительность                        : 1 h 29 min
Битрейт                                  : 53 b/s
ElementCount                             : 925
Размер потока                            : 35.3 KiB (0%)
Язык                                     : Russian
Default                                  : No
Forced                                   : No

Menu
00:00:00.000                             : en:Chapter 01
00:01:12.250                             : en:Chapter 02
00:10:59.416                             : en:Chapter 03
00:21:42.750                             : en:Chapter 04
00:34:06.541                             : en:Chapter 05
00:44:26.208                             : en:Chapter 06
00:55:01.250                             : en:Chapter 07
01:08:27.458                             : en:Chapter 08
01:21:39.708                             : en:Chapter 09




Скриншоты:
[+] Всего файлов в раздаче - 1:
Delirium2018BDRipAVC.mkv2.18 GB

Текущая раздача:
ДатаКомментарии    РазмерПиры
2018-07-03 U Истерия / Delirium (2018) BDRip-AVC | Лицензия 2.18 GB ↑ 134 ↓ 49

Показать еще раздачи по запросу истерия:
2018-07-03 U Истерия / Delirium (2018) BDRip 720p | Лицензия 5.89 GB ↑ 146 ↓ 140
2018-07-03 U Истерия / Delirium (2018) BDRip 1080p | Лицензия 9.58 GB ↑ 67 ↓ 129
2018-07-03 U Истерия / Delirium (2018) BDRip | Лицензия 1.46 GB ↑ 129 ↓ 77
2018-06-19 U Истерия / Delirium (2018) WEB-DLRip-AVC от OlLanDGroup | iTunes 1.46 GB ↑ 37 ↓ 7
2018-06-13 U Истерия / Delirium (2018) WEB-DLRip-AVC от ExKinoRay | iTunes 745.92 MB ↑ 147 ↓ 56
2018-06-13 U Истерия / Delirium (2018) WEB-DLRip-AVC | iTunes 1.37 GB ↑ 276 ↓ 90
2018-06-13 U Истерия / Delirium (2018) WEB-DLRip от MegaPeer | iTunes 1.46 GB ↑ 372 ↓ 157

Отзывы
Зарегистрируйтесь чтобы добавить комментарий.
Обратная связь
Copyleft ©