↑↓Torrent.by
Поиск
Логин: Регистрация
Пароль: Восстановить пароль
Загрузка...

Остров собак / Isle of Dogs (2018) WEB-DLRip-AVC от OlLanDGroup | iTunes

Скачать ostrov-sobak-isle-of-dogs-2018-web-dlrip-avc-ot-ollandgroup-itunes.torrent
U Магнитная ссылка Размер: 1.34 GB Раздают: 97 Качают: 50 Добавлен: 2018-07-03 20:31:35
Остров собак / Isle of Dogs (2018) WEB-DLRip-AVC от OlLanDGroup | iTunes

Остров собак / Isle of Dogs

Год выпуска: 2018
Страна: США, Германия
Производство: American Empirical Pictures, Indian Paintbrush, Studio Babelsberg
Жанр:  Мультфильм, фантастика, фэнтези, драма, комедия, приключения, полнометражный

Режиссёр: Уэс Андерсон
В ролях: Брайан Крэнстон, Кою Ранкин, Эдвард Нортон, Боб Бэлабан, Билл Мюррей, Джефф Голдблюм, Кунъити Номура, Акира Такаяма, Грета Гервиг, Фрэнсис МакДорманд

Перевод: Дублированный | iTunes
Субтитры: Русские (форс., хардсаб), Английские (полные, SDH)
Реклама: Отсутствует

Описание: История 12-летнего мальчика Атари Кобаяши, опекаемого коррумпированным мэром Кобаяши. Когда по Указу последнего все домашние собаки города Мегасаки изгоняются на громадную свалку, Атари в одиночку отправляется на миниатюрном летательном аппарате на мусорный остров, чтобы найти своего верного пса по прозвищу Спотс. Там на острове вместе со стаей новых друзей-дворняг он начнет эпичное путешествие, которое решит будущую судьбу всей Префектуры.

Качество: WEB-DLRip-AVC
Продолжительность: 01:41:20

Формат: MKV
Видео кодек: MPEG-4 AVC
Аудио кодек: AC3
Видео: 1024x576 (16:9), 23,976 fps, x264 ~1 256 kbps avg, 0.089 bit/pixel
Аудио #1: 48 kHz, AC3 Dolby Digital, 3/2 (L,C,R,l,r) + LFE ch, ~384.00 kbps avg | RUS (iTunes)
Аудио #2: 48 kHz, AC3 Dolby Digital, 2 (L,R) ch, ~256.00 kbps avg | ENG

Дата премьеры (РФ): 3 мая 2018, «Двадцатый Век Фокс СНГ»
Дата премьеры (мир): 15 февраля 2018

Релиз: Rip by:


[+] MediaInfo

Общее
Уникальный идентификатор                 : 240865765907557514342003843242079335783 (0xB5350F2216E39838A97F8C4FA8C4B567)
Полное имя                               : F:OlLanDGroupIsle.of.Dogs.2018.WEB-DLRip(AVC).OlLanDGroup.mkv
Формат                                   : Matroska
Версия формата                           : Version 4 / Version 2
Размер файла                             : 1,34 Гбайт
Продолжительность                        : 1 ч. 41 м.
Общий поток                              : 1898 Кбит/сек
Название фильма                          : Isle.of.Dogs.2018   #TorpedoUK#
Дата кодирования                         : UTC 2018-07-03 14:53:51
Программа кодирования                    : mkvmerge v8.3.0 ('Over the Horizon') 64bit
Библиотека кодирования                   : libebml v1.3.1 + libmatroska v1.4.2

Видео
Идентификатор                            : 1
Формат                                   : AVC
Формат/Информация                        : Advanced Video Codec
Профиль формата                          : High@L4.1
Параметр CABAC формата                   : Да
Параметр ReFrames формата                : 10 кадров
Идентификатор кодека                     : V_MPEG4/ISO/AVC
Продолжительность                        : 1 ч. 41 м.
Битрейт                                  : 1256 Кбит/сек
Ширина                                   : 1024 пикселя
Высота                                   : 576 пикселей
Соотношение сторон                       : 16:9
Режим частоты кадров                     : Постоянный
Частота кадров                           : 23,976 (24000/1001) кадра/сек
Цветовое пространство                    : YUV
Субдискретизация насыщенности            : 4:2:0
Битовая глубина                          : 8 бит
Тип развёртки                            : Прогрессивная
Бит/(Пиксели*Кадры)                      : 0.089
Размер потока                            : 910 Мбайт (66%)
Библиотека кодирования                   : x264 core 146 r2538 121396c
Настройки программы                      : cabac=1 / ref=10 / deblock=1:-3:-3 / analyse=0x3:0x113 / me=umh / subme=11 / psy=1 / psy_rd=0.99:0.05 / mixed_ref=1 / me_range=48 / chroma_me=1 / trellis=2 / 8x8dct=1 / cqm=0 / deadzone=21,11 / fast_pskip=1 / chroma_qp_offset=-3 / threads=6 / lookahead_threads=1 / sliced_threads=0 / nr=0 / decimate=1 / interlaced=0 / bluray_compat=0 / constrained_intra=0 / bframes=10 / b_pyramid=2 / b_adapt=2 / b_bias=0 / direct=3 / weightb=1 / open_gop=0 / weightp=2 / keyint=240 / keyint_min=23 / scenecut=40 / intra_refresh=0 / rc_lookahead=40 / rc=2pass / mbtree=1 / bitrate=1256 / ratetol=1.0 / qcomp=0.60 / qpmin=0 / qpmax=69 / qpstep=4 / cplxblur=20.0 / qblur=0.5 / vbv_maxrate=50000 / vbv_bufsize=62500 / nal_hrd=none / filler=0 / ip_ratio=1.40 / aq=1:1.00
Язык                                     : English
Default                                  : Да
Forced                                   : Нет

Аудио #1
Идентификатор                            : 2
Формат                                   : AC-3
Формат/Информация                        : Audio Coding 3
Расширение режима                        : CM (complete main)
Параметр Endianness формата              : Big
Идентификатор кодека                     : A_AC3
Продолжительность                        : 1 ч. 41 м.
Вид битрейта                             : Постоянный
Битрейт                                  : 384 Кбит/сек
Каналы                                   : 6 каналов
Расположение каналов                     : Front: L C R, Side: L R, LFE
Частота                                  : 48,0 КГц
Частота кадров                           : 31,250 кадров/сек (1536 spf)
Битовая глубина                          : 16 бит
Метод сжатия                             : С потерями
Размер потока                            : 278 Мбайт (20%)
Заголовок                                : iTunes
Язык                                     : Russian
Default                                  : Да
Forced                                   : Нет

Аудио #2
Идентификатор                            : 3
Формат                                   : AC-3
Формат/Информация                        : Audio Coding 3
Расширение режима                        : CM (complete main)
Параметр Endianness формата              : Big
Идентификатор кодека                     : A_AC3
Продолжительность                        : 1 ч. 41 м.
Вид битрейта                             : Постоянный
Битрейт                                  : 256 Кбит/сек
Каналы                                   : 2 канала
Расположение каналов                     : Front: L R
Частота                                  : 48,0 КГц
Частота кадров                           : 31,250 кадров/сек (1536 spf)
Битовая глубина                          : 16 бит
Метод сжатия                             : С потерями
Размер потока                            : 185 Мбайт (13%)
Заголовок                                : Original
Язык                                     : English
Default                                  : Нет
Forced                                   : Нет

Текст #1
Идентификатор                            : 4
Формат                                   : UTF-8
Идентификатор кодека                     : S_TEXT/UTF8
Идентификатор кодека/Информация          : UTF-8 Plain Text
Продолжительность                        : 1 ч. 35 м.
Битрейт                                  : 55 бит/сек
Count of elements                        : 1216
Размер потока                            : 39,3 Кбайт (0%)
Заголовок                                : Full
Язык                                     : English
Default                                  : Нет
Forced                                   : Нет

Текст #2
Идентификатор                            : 5
Формат                                   : UTF-8
Идентификатор кодека                     : S_TEXT/UTF8
Идентификатор кодека/Информация          : UTF-8 Plain Text
Продолжительность                        : 1 ч. 35 м.
Битрейт                                  : 63 бит/сек
Count of elements                        : 1439
Размер потока                            : 44,6 Кбайт (0%)
Заголовок                                : SDH
Язык                                     : English
Default                                  : Нет
Forced                                   : Нет

Меню
00:00:00.000                             : en:Chapter 01
00:03:35.048                             : en:Chapter 02
00:07:52.180                             : en:Chapter 03
00:13:40.194                             : en:Chapter 04
00:16:38.372                             : en:Chapter 05
00:20:44.034                             : en:Chapter 06
00:26:03.311                             : en:Chapter 07
00:29:26.263                             : en:Chapter 08
00:35:57.570                             : en:Chapter 09
00:40:35.472                             : en:Chapter 10
00:44:45.430                             : en:Chapter 11
00:48:14.097                             : en:Chapter 12
00:52:06.496                             : en:Chapter 13
00:56:05.776                             : en:Chapter 14
00:59:06.081                             : en:Chapter 15
01:03:16.706                             : en:Chapter 16
01:08:44.075                             : en:Chapter 17
01:14:02.226                             : en:Chapter 18
01:16:33.961                             : en:Chapter 19
01:20:45.921                             : en:Chapter 20
01:23:35.215                             : en:Chapter 21
01:30:08.733                             : en:Chapter 22
01:33:01.489                             : en:Chapter 23
01:35:40.231                             : en:Chapter 24



Скриншоты:
[+] Всего файлов в раздаче - 1:
Isle.of.Dogs.2018.WEB-DLRip(AVC).OlLanDGroup.mkv1.34 GB

Текущая раздача:
ДатаКомментарии    РазмерПиры
2018-07-03 U Остров собак / Isle of Dogs (2018) WEB-DLRip-AVC от OlLanDGroup | iTunes 1.34 GB ↑ 97 ↓ 50

Показать еще раздачи по запросу остров:
2018-07-16 U Остров собак / Isle of Dogs (2018) BDRip 1080p от qqss44 & MegaPeer | iTunes 4.20 GB ↑ 32 ↓ 6
2018-07-16 U Остров собак / Isle of Dogs (2018) BDRip от MegaPeer | iTunes 1.41 GB ↑ 26 ↓ 12
2018-07-10 U Остров собак / Isle of Dogs (2018) HDRip от Scarabey | Локализованная версия | iTunes 1К1.45 GB ↑ 40 ↓ 13
2018-07-08 U Остров собак / Isle of Dogs (2018) HDRip от Scarabey | iTunes 1.40 GB ↑ 70 ↓ 17
2018-07-07 U Остров собак / Isle of Dogs (2018) HDRip от MegaPeer | iTunes 748.32 MB ↑ 46 ↓ 11
2018-07-07 U Остров исправления (2017) WEB-DLRip от GeneralFilm 745.25 MB ↑ 236 ↓ 72
2018-07-07 U Остров исправления (2017) WEB-DLRip от Files-x 1.11 GB ↑ 156 ↓ 78

Отзывы
Зарегистрируйтесь чтобы добавить комментарий.
Обратная связь
Copyleft ©