↑↓Torrent.by
Поиск
Логин: Регистрация
Пароль: Восстановить пароль
Загрузка...

Два хвоста (2018) WEB-DL 1080p | iTunes

Скачать dva-hvosta-2018-web-dl-1080p-itunes.torrent
U Магнитная ссылка Размер: 2.85 GB Раздают: 193 Качают: 59 Добавлен: 2018-07-04 05:35:07
Два хвоста (2018) WEB-DL 1080p | iTunes

Год выхода: 2018
Жанр:  Мультфильм, детский
Режиссер: Наталья Нилова, Виктор Азеев
В ролях: Сергей Бурунов, Диомид Виноградов, Ирина Киреева

О фильме:
История о невероятных приключениях двух друзей — Кота Макса и Бобра Боба. Трудно найти более непохожих друг на друга героев! «Правильный» Боб стремится к тишине и покою, а непоседа Макс хочет стать знаменитым и прославиться на весь мир. И, тем не менее, именно этой парочке предстоит отразить нашествие инопланетных охотников за животными и прославиться на всю галактику! Вас ждут шутки, аттракционы и погони на летающих тарелках. Ключ на старт! Полетели!

Страна: Россия
Продолжительность: 01:14:25
Перевод: Не требуется | iTunes
Субтитры: Отсутствуют

Качество: WEB-DL 1080p
Формат: mkv
Видео кодек: AVC
Аудио кодек: AC3
Видео: 1920x1080, 23.976 fps, 4989 Кбит/с
Аудио: AC3, 384 Кбит/с, 6 ch, 48.0 KHz


[+] M/I
General
Unique ID                   : 193208668468367618804466537709204329468 (0x915AA2D1AC0B2B959DF0AFE932C2D3FC)
Complete name               : C:UsersDoMiNoDesktopDva.hvosta.2018.WEB.DL.1080p.iTunes_RGNEWMOWER.mkv
Format                      : Matroska
Format version              : Version 4 / Version 2
File size                   : 2.85 GiB
Duration                    : 1 h 14 min
Overall bit rate            : 5 482 kb/s
Encoded date                : UTC 2018-07-03 20:38:17
Writing application         : mkvmerge v24.0.0 ('Beyond The Pale') 64-bit
Writing library             : libebml v1.3.6 + libmatroska v1.4.9

Video
ID                          : 2
Format                      : AVC
Format/Info                 : Advanced Video Codec
Format profile              : High@L4
Format settings             : CABAC / 4 Ref Frames
Format settings, CABAC      : Yes
Format settings, ReFrames   : 4 frames
Codec ID                    : V_MPEG4/ISO/AVC
Duration                    : 1 h 14 min
Bit rate                    : 4 989 kb/s
Width                       : 1 920 pixels
Height                      : 1 080 pixels
Display aspect ratio        : 16:9
Frame rate mode             : Constant
Frame rate                  : 24.000 FPS
Color space                 : YUV
Chroma subsampling          : 4:2:0
Bit depth                   : 8 bits
Scan type                   : Progressive
Bits/(Pixel*Frame)          : 0.100
Stream size                 : 2.60 GiB (91%)
Language                    : English
Default                     : Yes
Forced                      : No
Color range                 : Limited
Color primaries             : BT.709
Transfer characteristics    : BT.709
Matrix coefficients         : BT.709

Audio
ID                          : 1
Format                      : AC-3
Format/Info                 : Audio Coding 3
Codec ID                    : A_AC3
Duration                    : 1 h 14 min
Bit rate mode               : Constant
Bit rate                    : 384 kb/s
Channel(s)                  : 6 channels
Channel positions           : Front: L C R, Side: L R, LFE
Sampling rate               : 48.0 kHz
Frame rate                  : 31.250 FPS (1536 SPF)
Bit depth                   : 16 bits
Compression mode            : Lossy
Delay relative to video     : -42 ms
Stream size                 : 205 MiB (7%)
Language                    : Russian
Service kind                : Complete Main
Default                     : Yes
Forced                      : No

Menu
00:00:00.000                : en:Глава 1
00:03:00.875                : en:Глава 2
00:11:49.250                : en:Глава 3
00:16:13.916                : en:Глава 4
00:22:17.916                : en:Глава 5
00:30:12.416                : en:Глава 6
00:36:35.791                : en:Глава 7
00:43:53.082                : en:Глава 8
00:51:04.165                : en:Глава 9
00:57:06.831                : en:Глава 10
01:05:52.081                : en:Глава 11




Скриншоты:
[+] Всего файлов в раздаче - 1:
Dva.hvosta.2018.WEB.DL.1080p.iTunes_RGNEWMOWER.mkv2.85 GB

Текущая раздача:
ДатаКомментарии    РазмерПиры
2018-07-04 U Два хвоста (2018) WEB-DL 1080p | iTunes 2.85 GB ↑ 193 ↓ 59

Похожие раздачи по запросу - хвоста:
2018-07-04 U Два хвоста (2018) WEB-DLRip-AVC от ivanes20031987 | iTunes 1.50 GB ↑ 116 ↓ 33
2018-07-04 U Два хвоста (2018) WEB-DLRip от GeneralFilm | iTunes 1.09 GB ↑ 174 ↓ 34
2018-07-04 U Два хвоста (2018) WEB-DLRip-AVC от ExKinoRay | iTunes 1.78 GB ↑ 155 ↓ 55
2018-07-04 U Два хвоста (2018) WEB-DLRip от GeneralFilm | iTunes 743.84 MB ↑ 266 ↓ 30

Отзывы
Зарегистрируйтесь чтобы добавить комментарий.
Обратная связь
Copyleft ©