↑↓Torrent.by
Поиск
Логин: Регистрация
Пароль: Восстановить пароль
Загрузка...

Два хвоста (2018) WEB-DLRip-AVC от ivanes20031987 | iTunes

Скачать dva-hvosta-2018-web-dlrip-avc-ot-ivanes20031987-itunes.torrent
U Магнитная ссылка Размер: 1.50 GB Раздают: 66 Качают: 27 Добавлен: 2018-07-04 18:58:42
Два хвоста (2018) WEB-DLRip-AVC от ivanes20031987 | iTunes

Название: Два хвоста
Год выхода: 2018
Жанр: мультфильм, детский
Режиссер: Наталья Нилова, Виктор Азеев
В ролях: Сергей Бурунов, Диомид Виноградов, Ирина Киреева

О фильме:
История о невероятных приключениях двух друзей — Кота Макса и Бобра Боба. Трудно найти более непохожих друг на друга героев! «Правильный» Боб стремится к тишине и покою, а непоседа Макс хочет стать знаменитым и прославиться на весь мир. И, тем не менее, именно этой парочке предстоит отразить нашествие инопланетных охотников за животными и прославиться на всю галактику! Вас ждут шутки, аттракционы и погони на летающих тарелках. Ключ на старт! Полетели!

Страна: Россия
Продолжительность: 01:14:30
Перевод: Не требуется

Файл
Кодек: H.264
Качество: WEB-DLRip-AVC
Видео: MPEG-4 AVC, 960x540 (16:9), 24.000 fps, ~2441 kbps avg, 0.196 bit/pixel
Звук: 48 kHz, AC3 Dolby Digital, 3/2 (L,C,R,l,r) + LFE ch, ~384 kbps avg
Субтитры: Нет

Семпл
[+] MediaInfo


Complete name               : D:РаздачаДва хвоста (2018) WEB-DLRip-AVC_ivanes20031987.mkv
Format                      : Matroska
Format version              : Version 2
File size                   : 1.50 GiB
Duration                    : 1 h 14 min
Overall bit rate            : 2 882 kb/s
Movie name                  : Два хвоста (2018) WEB-DLRip-AVC_ivanes20031987
Encoded date                : UTC 2018-07-03 19:50:26
Writing application         : mkvmerge v4.4.0 ('Die Wiederkehr') сборка от Jan  3 2011 21:40:45
Writing library             : libebml v1.0.0 + libmatroska v1.0.0
Cover                       : Yes
Attachments                 : cover.jpg

Video
ID                          : 1
Format                      : AVC
Format/Info                 : Advanced Video Codec
Format profile              : High@L4.1
Format settings, CABAC      : Yes
Format settings, RefFrames  : 14 frames
Codec ID                    : V_MPEG4/ISO/AVC
Duration                    : 1 h 14 min
Bit rate                    : 2 441 kb/s
Width                       : 960 pixels
Height                      : 540 pixels
Display aspect ratio        : 16:9
Frame rate mode             : Constant
Frame rate                  : 24.000 FPS
Color space                 : YUV
Chroma subsampling          : 4:2:0
Bit depth                   : 8 bits
Scan type                   : Progressive
Bits/(Pixel*Frame)          : 0.196
Stream size                 : 1.27 GiB (85%)
Title                       : Rip by ivanes20031987
Writing library             : x264 core 155 r2901 7d0ff22
Encoding settings           : cabac=1 / ref=14 / deblock=1:-3:-3 / analyse=0x3:0x113 / me=umh / subme=10 / psy=1 / psy_rd=1.00:0.00 / mixed_ref=1 / me_range=32 / chroma_me=1 / trellis=2 / 8x8dct=1 / cqm=0 / deadzone=21,11 / fast_pskip=0 / chroma_qp_offset=-2 / threads=12 / lookahead_threads=3 / sliced_threads=0 / nr=0 / decimate=0 / interlaced=0 / bluray_compat=0 / constrained_intra=0 / bframes=14 / b_pyramid=2 / b_adapt=2 / b_bias=0 / direct=1 / weightb=1 / open_gop=0 / weightp=2 / keyint=240 / keyint_min=24 / scenecut=40 / intra_refresh=0 / rc_lookahead=60 / rc=crf / mbtree=0 / crf=18.4 / qcomp=0.60 / qpmin=0 / qpmax=69 / qpstep=4 / vbv_maxrate=50000 / vbv_bufsize=62500 / crf_max=0.0 / nal_hrd=none / filler=0 / ip_ratio=1.40 / pb_ratio=1.30 / aq=1:1.00
Default                     : Yes
Forced                      : No

Audio
ID                          : 2
Format                      : AC-3
Format/Info                 : Audio Coding 3
Format settings, Endianness : Big
Codec ID                    : A_AC3
Duration                    : 1 h 14 min
Bit rate mode               : Constant
Bit rate                    : 384 kb/s
Channel(s)                  : 6 channels
Channel positions           : Front: L C R, Side: L R, LFE
Sampling rate               : 48.0 kHz
Frame rate                  : 31.250 FPS (1536 SPF)
Bit depth                   : 16 bits
Compression mode            : Lossy
Stream size                 : 205 MiB (13%)
Language                    : Russian
Service kind                : Complete Main
Default                     : Yes
Forced                      : No




Скриншоты:
[+] Всего файлов в раздаче - 1:
Два хвоста (2018) WEB-DLRip-AVC_ivanes20031987.mkv1.50 GB

Текущая раздача:
ДатаКомментарии    РазмерПиры
2018-07-04 U Два хвоста (2018) WEB-DLRip-AVC от ivanes20031987 | iTunes 1.50 GB ↑ 66 ↓ 27

Похожие раздачи по запросу - хвоста:
2018-07-04 U Два хвоста (2018) WEB-DLRip от GeneralFilm | iTunes 1.09 GB ↑ 115 ↓ 32
2018-07-04 U Два хвоста (2018) WEB-DLRip-AVC от ExKinoRay | iTunes 1.78 GB ↑ 128 ↓ 52
2018-07-04 U Два хвоста (2018) WEB-DLRip от GeneralFilm | iTunes 743.84 MB ↑ 70 ↓ 27
2018-07-04 U Два хвоста (2018) WEB-DL 1080p | iTunes 2.85 GB ↑ 160 ↓ 51

Отзывы
Зарегистрируйтесь чтобы добавить комментарий.
Обратная связь
Copyleft ©