↑↓Torrent.by
Поиск
Логин: Регистрация
Пароль: Восстановить пароль
Загрузка...

Кровный отец / Blood Father (2016) BDRip-AVC от OlLanDGroup | HDRezka Studio

Скачать krovnyy-otec-blood-father-2016-bdrip-avc-ot-ollandgroup-hdrezka-studio.torrent
U Магнитная ссылка Размер: 1.58 GB Раздают: 70 Качают: 28 Добавлен: 2018-07-05 05:43:31
Кровный отец / Blood Father (2016) BDRip-AVC от OlLanDGroup | HDRezka Studio

Кровный отец / Blood Father
«A Father Makes His Own Justice»

Год выпуска: 2016
Страна: Франция
Производство: Why Not Productions
Жанр:  Боевик, триллер

Режиссёр: Жан-Франсуа Рише
В ролях: Мэл Гибсон, Эрин Мориарти, Диего Луна, Майкл Паркс, Уильям Х. Мэйси, Мигель Сандовал, Дейл Дикки, Ричард Кебрал, Дэниэл Монкада, Райан Дорси

Перевод: Профессиональный (многоголосый, закадровый) | HDrezka Studio
Субтитры: Русские (полные, Гаврилов), Английские (полные, SDH)
Реклама: Отсутствует

Описание: 17-летняя девушка попадает в серьёзные неприятности, и теперь за ней охотятся убийцы наркокартеля. Из близких у неё только отец — завязавший алкоголик и бывший заключённый, который даже особо не видел свою дочь и не принимал участия в её воспитании. Но родственников не выбирают, и девушке приходится обратиться к нему за помощью.

Качество: BDRip-AVC
Продолжительность: 01:28:13

Формат: MKV
Видео кодек: MPEG-4 AVC
Аудио кодек: AC3
Видео: 976x408 (2.40:1), 23,976 fps, x264 ~1 919 kbps avg, 0.201 bit/pixel
Аудио: 48 kHz, AC3 Dolby Digital, 2 (L,R) ch, ~192.00 kbps avg | RUS (HDRezka)
Аудио: 48 kHz, AC3 Dolby Digital, 3/2 (L,C,R,l,r) + LFE ch, ~448.00 kbps avg | ENG

Цифровой релиз: 19 февраля 2018, «Централ Партнершип»
Дата премьеры (мир): 21 мая 2016

Релиз: Rip by:


[+] MediaInfo

Общее
Уникальный идентификатор                 : 247707228075671370162031611148809151832 (0xBA5AAD42B68660F0B75A9237C73E2558)
Полное имя                               : F:OlLanDGroupBlood.Father.2016.BDRip(AVC).OlLanDGroup.mkv
Формат                                   : Matroska
Версия формата                           : Version 4 / Version 2
Размер файла                             : 1,58 Гбайт
Продолжительность                        : 1 ч. 28 м.
Общий поток                              : 2558 Кбит/сек
Название фильма                          : Blood.Father.2016    #TorpedoUK#
Дата кодирования                         : UTC 2018-07-04 14:26:34
Программа кодирования                    : mkvmerge v8.3.0 ('Over the Horizon') 64bit
Библиотека кодирования                   : libebml v1.3.1 + libmatroska v1.4.2
Обложка                                  : Yes
Attachments                              : cover_land.jpg / small_cover.jpg / small_cover_land.jpg / cover.jpg

Видео
Идентификатор                            : 1
Формат                                   : AVC
Формат/Информация                        : Advanced Video Codec
Профиль формата                          : High@L4.1
Параметр CABAC формата                   : Да
Параметр ReFrames формата                : 10 кадров
Идентификатор кодека                     : V_MPEG4/ISO/AVC
Продолжительность                        : 1 ч. 28 м.
Битрейт                                  : 1919 Кбит/сек
Ширина                                   : 976 пикселей
Высота                                   : 408 пикселей
Соотношение сторон                       : 2,40:1
Режим частоты кадров                     : Постоянный
Частота кадров                           : 23,976 (24000/1001) кадра/сек
Цветовое пространство                    : YUV
Субдискретизация насыщенности            : 4:2:0
Битовая глубина                          : 8 бит
Тип развёртки                            : Прогрессивная
Бит/(Пиксели*Кадры)                      : 0.201
Размер потока                            : 1,18 Гбайт (75%)
Библиотека кодирования                   : x264 core 146 r2538 121396c
Настройки программы                      : cabac=1 / ref=10 / deblock=1:-3:-3 / analyse=0x3:0x133 / me=umh / subme=11 / psy=1 / psy_rd=0.99:0.06 / mixed_ref=1 / me_range=48 / chroma_me=1 / trellis=2 / 8x8dct=1 / cqm=0 / deadzone=21,11 / fast_pskip=1 / chroma_qp_offset=-3 / threads=6 / lookahead_threads=1 / sliced_threads=0 / nr=0 / decimate=1 / interlaced=0 / bluray_compat=0 / constrained_intra=0 / bframes=10 / b_pyramid=2 / b_adapt=2 / b_bias=0 / direct=3 / weightb=1 / open_gop=0 / weightp=2 / keyint=240 / keyint_min=23 / scenecut=40 / intra_refresh=0 / rc_lookahead=40 / rc=2pass / mbtree=0 / bitrate=1919 / ratetol=1.0 / qcomp=0.60 / qpmin=0 / qpmax=69 / qpstep=4 / cplxblur=20.0 / qblur=0.5 / vbv_maxrate=50000 / vbv_bufsize=62500 / nal_hrd=none / filler=0 / ip_ratio=1.40 / pb_ratio=1.30 / aq=1:1.00
Default                                  : Да
Forced                                   : Нет

Аудио #1
Идентификатор                            : 2
Формат                                   : AC-3
Формат/Информация                        : Audio Coding 3
Расширение режима                        : CM (complete main)
Параметр Endianness формата              : Big
Идентификатор кодека                     : A_AC3
Продолжительность                        : 1 ч. 28 м.
Вид битрейта                             : Постоянный
Битрейт                                  : 192 Кбит/сек
Каналы                                   : 2 канала
Расположение каналов                     : Front: L R
Частота                                  : 48,0 КГц
Частота кадров                           : 31,250 кадров/сек (1536 spf)
Битовая глубина                          : 16 бит
Метод сжатия                             : С потерями
Размер потока                            : 121 Мбайт (8%)
Заголовок                                : MVO [HDRezka Studio]
Язык                                     : Russian
Default                                  : Да
Forced                                   : Нет

Аудио #2
Идентификатор                            : 3
Формат                                   : AC-3
Формат/Информация                        : Audio Coding 3
Расширение режима                        : CM (complete main)
Параметр Endianness формата              : Big
Идентификатор кодека                     : A_AC3
Продолжительность                        : 1 ч. 28 м.
Вид битрейта                             : Постоянный
Битрейт                                  : 448 Кбит/сек
Каналы                                   : 6 каналов
Расположение каналов                     : Front: L C R, Side: L R, LFE
Частота                                  : 48,0 КГц
Частота кадров                           : 31,250 кадров/сек (1536 spf)
Битовая глубина                          : 16 бит
Метод сжатия                             : С потерями
Размер потока                            : 283 Мбайт (18%)
Заголовок                                : Original
Язык                                     : English
Default                                  : Нет
Forced                                   : Нет

Текст #1
Идентификатор                            : 4
Формат                                   : UTF-8
Идентификатор кодека                     : S_TEXT/UTF8
Идентификатор кодека/Информация          : UTF-8 Plain Text
Продолжительность                        : 1 ч. 20 м.
Битрейт                                  : 86 бит/сек
Count of elements                        : 1031
Размер потока                            : 51,0 Кбайт (0%)
Заголовок                                : Full [Gavrilov]
Язык                                     : Russian
Default                                  : Нет
Forced                                   : Нет

Текст #2
Идентификатор                            : 5
Формат                                   : UTF-8
Идентификатор кодека                     : S_TEXT/UTF8
Идентификатор кодека/Информация          : UTF-8 Plain Text
Продолжительность                        : 1 ч. 20 м.
Битрейт                                  : 67 бит/сек
Count of elements                        : 1179
Размер потока                            : 40,1 Кбайт (0%)
Заголовок                                : Full
Язык                                     : English
Default                                  : Нет
Forced                                   : Нет

Текст #3
Идентификатор                            : 6
Формат                                   : UTF-8
Идентификатор кодека                     : S_TEXT/UTF8
Идентификатор кодека/Информация          : UTF-8 Plain Text
Продолжительность                        : 1 ч. 21 м.
Битрейт                                  : 72 бит/сек
Count of elements                        : 1334
Размер потока                            : 43,4 Кбайт (0%)
Заголовок                                : SDH
Язык                                     : English
Default                                  : Нет
Forced                                   : Нет

Меню
00:00:00.000                             : en:Chapter 01
00:07:02.797                             : en:Chapter 02
00:10:16.741                             : en:Chapter 03
00:15:59.583                             : en:Chapter 04
00:22:02.195                             : en:Chapter 05
00:28:58.695                             : en:Chapter 06
00:32:28.947                             : en:Chapter 07
00:38:43.112                             : en:Chapter 08
00:45:11.583                             : en:Chapter 09
00:48:45.839                             : en:Chapter 10
00:52:44.369                             : en:Chapter 11
00:57:36.327                             : en:Chapter 12
01:02:32.707                             : en:Chapter 13
01:07:51.734                             : en:Chapter 14
01:12:41.607                             : en:Chapter 15
01:20:57.561                             : en:Chapter 16



Скриншоты:
[+] Всего файлов в раздаче - 1:
Blood.Father.2016.BDRip(AVC).OlLanDGroup.mkv1.58 GB

Отзывы
Зарегистрируйтесь чтобы добавить комментарий.
Обратная связь
Copyleft ©