↑↓Torrent.by
Поиск
Логин: Регистрация
Пароль: Восстановить пароль
Загрузка...

Остров собак / Isle of Dogs (2018) BDRip 1080p | iTunes

Скачать ostrov-sobak-isle-of-dogs-2018-bdrip-1080p-itunes.torrent
U Магнитная ссылка Размер: 7.16 GB Раздают: 320 Качают: 200 Добавлен: 2018-07-05 19:10:30
Остров собак / Isle of Dogs (2018) BDRip 1080p | iTunes

Название: Остров собак
Оригинальное название: Isle of Dogs
Год выхода: 2018
Жанр: Мультфильм, фантастика, фэнтези, драма, комедия, приключения
Режиссер: Уэс Андерсон
В ролях: Брайан Крэнстон, Кою Ранкин, Эдвард Нортон, Боб Бэлабан, Билл Мюррей, Джефф Голдблюм, Кунъити Номура, Акира Такаяма, Грета Гервиг, Фрэнсис МакДорманд

О фильме:
История 12-летнего мальчика Атари Кобаяши, опекаемого коррумпированным мэром Кобаяши. Когда по Указу последнего все домашние собаки города Мегасаки изгоняются на громадную свалку, Атари в одиночку отправляется на миниатюрном летательном аппарате на мусорный остров, чтобы найти своего верного пса по прозвищу Спотс. Там на острове вместе со стаей новых друзей-дворняг он начнет эпичное путешествие, которое решит будущую судьбу всей Префектуры.

Страна: Германия, США
Студия: American Empirical Pictures, Indian Paintbrush, Studio Babelsberg
Продолжительность: 01:41:10
Перевод: Дублированный | iTunes

Файл
Кодек: x.264
Качество: BDRip 1080p
Видео: MPEG-4 AVC, 1920x808, 9303 Kбит/с, 23.976 кадр/с
Аудио #1: Русский ( AC3, 6ch, 384 Кбит/с, 48.0 KHz) Профессиональный (дублированный) iTunes
Аудио #2: Английский ( AC3, 6ch, 448 Кбит/с, 48.0 KHz)
Субтитры: русские, aнглийские


[+] MediaInfo
Источник: Isle.of.Dogs.2018.1080p.BluRay.x264-DRONES
General
Unique ID                      : 183773287442896433327663228357114212335 (0x8A41729E33CAB35C872489F1741E2FEF)
Complete name                  : Isle.of.Dogs.2018.BDRip.1080p.mkv
Format                         : Matroska
Format version                 : Version 4 / Version 2
File size                      : 7.16 GiB
Duration                       : 1 h 41 min
Overall bit rate               : 10.1 Mb/s
Encoded date                   : UTC 2018-07-04 19:09:16
Writing application            : mkvmerge v7.1.0 ('Good Love') 64bit built on Jul 27 2014 13:06:55
Writing library                : libebml v1.3.0 + libmatroska v1.4.1

Video
ID                             : 1
Format                         : AVC
Format/Info                    : Advanced Video Codec
Format profile                 : High@L4.1
Format settings                : CABAC / 5 Ref Frames
Format settings, CABAC         : Yes
Format settings, ReFrames      : 5 frames
Codec ID                       : V_MPEG4/ISO/AVC
Duration                       : 1 h 41 min
Bit rate                       : 9 303 kb/s
Width                          : 1 920 pixels
Height                         : 808 pixels
Display aspect ratio           : 2.40:1
Frame rate mode                : Constant
Frame rate                     : 23.976 (24000/1001) FPS
Color space                    : YUV
Chroma subsampling             : 4:2:0
Bit depth                      : 8 bits
Scan type                      : Progressive
Bits/(Pixel*Frame)             : 0.250
Stream size                    : 6.57 GiB (92%)
Writing library                : x264 core 155 r2901 7d0ff22
Encoding settings              : cabac=1 / ref=5 / deblock=1:-3:-3 / analyse=0x3:0x113 / me=umh / subme=8 / psy=1 / psy_rd=1.00:0.00 / mixed_ref=1 / me_range=16 / chroma_me=1 / trellis=1 / 8x8dct=1 / cqm=0 / deadzone=21,11 / fast_pskip=1 / chroma_qp_offset=-2 / threads=25 / lookahead_threads=4 / sliced_threads=0 / nr=0 / decimate=1 / interlaced=0 / bluray_compat=0 / constrained_intra=0 / bframes=3 / b_pyramid=2 / b_adapt=1 / b_bias=0 / direct=3 / weightb=1 / open_gop=0 / weightp=2 / keyint=240 / keyint_min=24 / scenecut=40 / intra_refresh=0 / rc_lookahead=50 / rc=2pass / mbtree=1 / bitrate=9303 / ratetol=1.0 / qcomp=0.60 / qpmin=0 / qpmax=69 / qpstep=4 / cplxblur=20.0 / qblur=0.5 / ip_ratio=1.40 / aq=1:1.00
Language                       : English
Default                        : Yes
Forced                         : No

Audio #1
ID                             : 2
Format                         : AC-3
Format/Info                    : Audio Coding 3
Codec ID                       : A_AC3
Duration                       : 1 h 41 min
Bit rate mode                  : Constant
Bit rate                       : 384 kb/s
Channel(s)                     : 6 channels
Channel positions              : Front: L C R, Side: L R, LFE
Sampling rate                  : 48.0 kHz
Frame rate                     : 31.250 FPS (1536 SPF)
Bit depth                      : 16 bits
Compression mode               : Lossy
Stream size                    : 278 MiB (4%)
Title                          : iTunes
Language                       : Russian
Service kind                   : Complete Main
Default                        : Yes
Forced                         : No

Audio #2
ID                             : 3
Format                         : AC-3
Format/Info                    : Audio Coding 3
Codec ID                       : A_AC3
Duration                       : 1 h 41 min
Bit rate mode                  : Constant
Bit rate                       : 448 kb/s
Channel(s)                     : 6 channels
Channel positions              : Front: L C R, Side: L R, LFE
Sampling rate                  : 48.0 kHz
Frame rate                     : 31.250 FPS (1536 SPF)
Bit depth                      : 16 bits
Compression mode               : Lossy
Stream size                    : 324 MiB (4%)
Language                       : English
Service kind                   : Complete Main
Default                        : No
Forced                         : No

Text #1
ID                             : 4
Format                         : UTF-8
Codec ID                       : S_TEXT/UTF8
Codec ID/Info                  : UTF-8 Plain Text
Duration                       : 1 h 33 min
Bit rate                       : 94 b/s
Count of elements              : 1215
Stream size                    : 65.1 KiB (0%)
Title                          : FOCS Studio
Language                       : Russian
Default                        : No
Forced                         : No

Text #2
ID                             : 5
Format                         : UTF-8
Codec ID                       : S_TEXT/UTF8
Codec ID/Info                  : UTF-8 Plain Text
Duration                       : 1 h 33 min
Bit rate                       : 56 b/s
Count of elements              : 1203
Stream size                    : 38.8 KiB (0%)
Language                       : English
Default                        : No
Forced                         : No

Text #3
ID                             : 6
Format                         : UTF-8
Codec ID                       : S_TEXT/UTF8
Codec ID/Info                  : UTF-8 Plain Text
Duration                       : 1 h 35 min
Bit rate                       : 63 b/s
Count of elements              : 1429
Stream size                    : 44.4 KiB (0%)
Title                          : SDH
Language                       : English
Default                        : No
Forced                         : No

Menu
00:00:00.000                   : en:00:00:00.000
00:03:36.049                   : en:00:03:36.049
00:07:53.181                   : en:00:07:53.181
00:13:41.195                   : en:00:13:41.195
00:16:39.373                   : en:00:16:39.373
00:20:45.035                   : en:00:20:45.035
00:26:04.312                   : en:00:26:04.312
00:29:27.265                   : en:00:29:27.265
00:35:58.573                   : en:00:35:58.573
00:40:36.475                   : en:00:40:36.475
00:44:46.433                   : en:00:44:46.433
00:48:15.100                   : en:00:48:15.100
00:52:07.499                   : en:00:52:07.499
00:56:06.780                   : en:00:56:06.780
00:59:07.085                   : en:00:59:07.085
01:03:17.710                   : en:01:03:17.710
01:08:45.079                   : en:01:08:45.079
01:14:03.230                   : en:01:14:03.230
01:16:34.965                   : en:01:16:34.965
01:20:46.925                   : en:01:20:46.925
01:23:36.219                   : en:01:23:36.219
01:30:09.737                   : en:01:30:09.737
01:33:02.493                   : en:01:33:02.493
01:35:41.235                   : en:01:35:41.235



Скриншоты:
[+] Всего файлов в раздаче - 1:
Isle.of.Dogs.2018.BDRip.1080p.mkv7.16 GB

Текущая раздача:
ДатаКомментарии    РазмерПиры
2018-07-05 U Остров собак / Isle of Dogs (2018) BDRip 1080p | iTunes 7.16 GB ↑ 320 ↓ 200

Показать еще раздачи по запросу остров:
2018-07-16 U Остров собак / Isle of Dogs (2018) BDRip 1080p от qqss44 & MegaPeer | iTunes 4.20 GB ↑ 33 ↓ 5
2018-07-16 U Остров собак / Isle of Dogs (2018) BDRip от MegaPeer | iTunes 1.41 GB ↑ 26 ↓ 14
2018-07-10 U Остров собак / Isle of Dogs (2018) HDRip от Scarabey | Локализованная версия | iTunes 1К1.45 GB ↑ 45 ↓ 13
2018-07-08 U Остров собак / Isle of Dogs (2018) HDRip от Scarabey | iTunes 1.40 GB ↑ 74 ↓ 17
2018-07-07 U Остров собак / Isle of Dogs (2018) HDRip от MegaPeer | iTunes 748.32 MB ↑ 47 ↓ 11
2018-07-07 U Остров исправления (2017) WEB-DLRip от GeneralFilm 745.25 MB ↑ 251 ↓ 74
2018-07-07 U Остров исправления (2017) WEB-DLRip от Files-x 1.11 GB ↑ 160 ↓ 79

Отзывы
Зарегистрируйтесь чтобы добавить комментарий.
Обратная связь
Copyleft ©