↑↓Torrent.by
Поиск
Логин: Регистрация
Пароль: Восстановить пароль
Загрузка...

Шпионская игра / The Catcher Was a Spy (2018) WEBRip 720p | L2

Скачать shpionskaya-igra-the-catcher-was-a-spy-2018-webrip-720p-l2.torrent
U Магнитная ссылка Размер: 3.23 GB Раздают: 247 Качают: 109 Добавлен: 2018-07-06 14:34:49
Шпионская игра / The Catcher Was a Spy (2018) WEBRip 720p | L2

Название: Шпионская игра
Оригинальное название: The Catcher Was a Spy
Год выхода: 2018
Жанр: Триллер, приключения
Режиссер: Бен Луин
В ролях: Пол Радд, Конни Нильсен, Марк Стронг, Сиенна Миллер, Гай Пирс, Пол Джаматти, Джефф Дэниелс, Хироюки Санада, Шей Уигэм, Том Уилкинсон и другие
О фильме:
Разгар Второй мировой войны. Жизнь Мо Берга, интеллектуала, полиглота, выпускника престижного университета и известного спортсмена-бейсболиста, круто меняется, когда ему предлагают сотрудничество с Управлением стратегических служб (предшественник ЦРУ). Благодаря своим разнообразным талантам, а также умению хранить секреты, Мо быстро осваивается в роли шпиона. От выполнения его первого задания зависит - ни много ни мало - судьба всего мира. Берг должен отправиться в фашистскую Германию, чтобы выкрасть или уничтожить Вернера Гейзенберга, одного из ученых - разработчиков атомной бомбы...

Страна: США, PalmStar Media, Animus Films, Serena Films
Продолжительность: 01:35:11
Перевод: Любительский (двухголосый закадровый) | HiWay Grope

Файл
Кодек: MPEG-4 AVC/x.264
Качество: WEBRip 720p
Видео: 1280x692, 25.000 fps, ~4371 kbps, 0.197 bit/pixel
Звук:
Аудио rus: AC3, 48 kHz, 6 ch, 384 Kbps
Субтитры: отсутствуют

Реклама: присутствует

Семпл

Релиз от: HiWay Grope


[+] MediaInfo:

General
Unique ID                   : 233875691993509460266403542952276950035 (0xAFF2D1E185E662B1A3BEC3270C7C7C13)
Complete name               : D:The.Catcher.Was.a.Spy.2018.720p.WEBRip.HiWayGropeThe.Catcher.Was.a.Spy.2018.720p.WEBRip.HiWayGrope.mkv
Format                      : Matroska
Format version              : Version 2
File size                   : 3.23 GiB
Duration                    : 1 h 35 min
Overall bit rate            : 4 852 kb/s
Encoded date                : UTC 2018-07-05 16:13:20
Writing application         : mkvmerge v3.3.0 ('Language') built on Mar 24 2010 14:59:24
Writing library             : libebml v0.8.0 + libmatroska v0.9.0

Video
ID                          : 1
Format                      : AVC
Format/Info                 : Advanced Video Codec
Format profile              : Main@L3.1
Format settings             : CABAC / 3 Ref Frames
Format settings, CABAC      : Yes
Format settings, ReFrames   : 3 frames
Codec ID                    : V_MPEG4/ISO/AVC
Duration                    : 1 h 35 min
Bit rate                    : 4 371 kb/s
Width                       : 1 280 pixels
Height                      : 692 pixels
Display aspect ratio        : 1.85:1
Frame rate mode             : Constant
Frame rate                  : 25.000 FPS
Standard                    : PAL
Color space                 : YUV
Chroma subsampling          : 4:2:0
Bit depth                   : 8 bits
Scan type                   : Progressive
Bits/(Pixel*Frame)          : 0.197
Stream size                 : 2.91 GiB (90%)
Language                    : English
Default                     : Yes
Forced                      : No
Color range                 : Limited
Color primaries             : BT.709
Transfer characteristics    : BT.709
Matrix coefficients         : BT.709

Audio
ID                          : 2
Format                      : AC-3
Format/Info                 : Audio Coding 3
Codec ID                    : A_AC3
Duration                    : 1 h 35 min
Bit rate mode               : Constant
Bit rate                    : 384 kb/s
Channel(s)                  : 6 channels
Channel positions           : Front: L C R, Side: L R, LFE
Sampling rate               : 48.0 kHz
Frame rate                  : 31.250 FPS (1536 SPF)
Bit depth                   : 16 bits
Compression mode            : Lossy
Stream size                 : 261 MiB (8%)
Service kind                : Complete Main
Default                     : Yes
Forced                      : No




Скриншоты:
[+] Всего файлов в раздаче - 1:
The.Catcher.Was.a.Spy.2018.720p.WEBRip.HiWayGrope.mkv3.23 GB

Текущая раздача:
ДатаКомментарии    РазмерПиры
2018-07-06 U Шпионская игра / The Catcher Was a Spy (2018) WEBRip 720p | L2 3.23 GB ↑ 247 ↓ 109

Показать еще раздачи по запросу шпионская:
2018-09-04 U Шпионская игра / The Catcher Was a Spy (2018) WEB-DLRip-AVC | iTunes 744.86 MB ↑ 61 ↓ 15
2018-09-04 U Шпионская игра / The Catcher Was a Spy (2018) WEB-DLRip-AVC от ivanes20031987 | iTunes 746.25 MB ↑ 52 ↓ 6
2018-09-03 U Шпионская игра / The Catcher Was a Spy (2018) WEB-DL 1080p | iTunes 3.73 GB ↑ 133 ↓ 96
2018-09-03 U Шпионская игра / The Catcher Was a Spy (2018) WEB-DLRip от MegaPeer | iTunes 1.46 GB ↑ 221 ↓ 134
2018-07-14 U Шпионская игра / The Catcher Was a Spy (2018) WEB-DLRip от MegaPeer | HDrezka Studio 1.46 GB ↑ 257 ↓ 43
2018-07-14 U Шпионская игра / The Catcher Was a Spy (2018) WEB-DL 1080p | HDRezka Studio 1К3.61 GB ↑ 186 ↓ 70
2018-07-13 U Шпионская игра / The Catcher Was a Spy (2018) WEB-DLRip-AVC от OlLanDGroup | HDRezka Studio 1К1.46 GB ↑ 302 ↓ 112

Отзывы
Зарегистрируйтесь чтобы добавить комментарий.
Обратная связь
Copyleft ©