↑↓Torrent.by
Поиск
Логин: Регистрация
Пароль: Восстановить пароль
Загрузка...

Остров собак / Isle of Dogs (2018) HDRip от R.G.Resident | iTunes

Скачать ostrov-sobak-isle-of-dogs-2018-hdrip-ot-r-g-resident-itunes.torrent
U Магнитная ссылка Размер: 2.05 GB Раздают: 49 Качают: 22 Добавлен: 2018-07-06 14:35:27
Остров собак / Isle of Dogs (2018) HDRip от R.G.Resident | iTunes

Название: Остров собак
Оригинальное название: Isle of Dogs
Год выпуска: 2018
Страна: Германия, США
Жанр: мультфильм, фэнтези, драма, комедия, приключения

Перевод: Дублированный [iTunes]
Субтитры: Русские (форс., вшитые), русские (полные, FOCS Studio) - отдельным файлом
Продолжительность: 01:41:09
Режиссер: Уэс Андерсон
В ролях: Брайан Крэнстон (Chief, озвучка), Кою Ранкин (Atari, озвучка), Эдвард Нортон (Rex, озвучка), Боб Бэлабан (King, озвучка), Билл Мюррей (Boss, озвучка), Джефф Голдблюм (Duke, озвучка), Кунъити Номура (Mayor Kobayashi, озвучка), Акира Такаяма (Major-Domo, озвучка), Грета Гервиг (Tracy Walker, озвучка), Фрэнсис МакДорманд (Interpreter Nelson, озвучка), Акира Ито (Professor Watanabe, озвучка), Скарлетт Йоханссон (Nutmeg, озвучка)

Описание:
История 12-летнего мальчика Атари Кобаяши, опекаемого коррумпированным мэром Кобаяши. Когда по Указу последнего все домашние собаки города Мегасаки изгоняются на громадную свалку, Атари в одиночку отправляется на миниатюрном летательном аппарате на мусорный остров, чтобы найти своего верного пса по прозвищу Спотс. Там на острове вместе со стаей новых друзей-дворняг он начнет эпичное путешествие, которое решит будущую судьбу всей Префектуры.

 
MPAA: PG-13 - Детям до 13 лет просмотр не желателен
Качество: HDRip
Формат: AVI
Видео: XviD, 720x304 (2.35:1), 2055 kbps, 23,976 fps, 0,392 bpp
Аудио №1: AC3 / 5.1 / 48 kHz / 384 kbps - Русский
Аудио №2: AC3 / 5.1 / 48 kHz / 448 kbps - Английский
Семпл

Релиз:


[+] ОтчетМедиаИнфо

General
Complete name                            : F:Isle.of.Dogs.2018.HDRip.R.G.ResidentIsle.of.Dogs.2018.HDRip.R.G.Resident.avi
Format                                   : AVI
Format/Info                              : Audio Video Interleave
Format profile                           : OpenDML
File size                                : 2.05 GiB
Duration                                 : 1 h 41 min
Overall bit rate                         : 2 906 kb/s
Writing application                      : VirtualDubModRus 1.5.10.2 (build 2542/release)
Writing library                          : VirtualDubMod build 2542/release

Video
ID                                       : 0
Format                                   : MPEG-4 Visual
Format profile                           : Advanced Simple@L5
Format settings, BVOP                    : 1
Format settings, QPel                    : No
Format settings, GMC                     : No warppoints
Format settings, Matrix                  : Custom
Codec ID                                 : XVID
Codec ID/Hint                            : XviD
Duration                                 : 1 h 41 min
Bit rate                                 : 2 056 kb/s
Width                                    : 720 pixels
Height                                   : 304 pixels
Display aspect ratio                     : 2.35:1
Frame rate                               : 23.976 (24000/1001) FPS
Color space                              : YUV
Chroma subsampling                       : 4:2:0
Bit depth                                : 8 bits
Scan type                                : Progressive
Compression mode                         : Lossy
Bits/(Pixel*Frame)                       : 0.392
Stream size                              : 1.45 GiB (71%)
Writing library                          : XviD 73

Audio #1
ID                                       : 1
Format                                   : AC-3
Format/Info                              : Audio Coding 3
Mode extension                           : CM (complete main)
Format settings, Endianness              : Big
Codec ID                                 : 2000
Duration                                 : 1 h 41 min
Bit rate mode                            : Constant
Bit rate                                 : 384 kb/s
Channel(s)                               : 6 channels
Channel positions                        : Front: L C R, Side: L R, LFE
Sampling rate                            : 48.0 kHz
Frame rate                               : 31.250 FPS (1536 spf)
Compression mode                         : Lossy
Stream size                              : 278 MiB (13%)
Alignment                                : Split accross interleaves
Interleave, duration                     : 42  ms (1.00 video frame)
Interleave, preload duration             : 500  ms

Audio #2
ID                                       : 2
Format                                   : AC-3
Format/Info                              : Audio Coding 3
Mode extension                           : CM (complete main)
Format settings, Endianness              : Big
Codec ID                                 : 2000
Duration                                 : 1 h 41 min
Bit rate mode                            : Constant
Bit rate                                 : 448 kb/s
Channel(s)                               : 6 channels
Channel positions                        : Front: L C R, Side: L R, LFE
Sampling rate                            : 48.0 kHz
Frame rate                               : 31.250 FPS (1536 spf)
Compression mode                         : Lossy
Stream size                              : 324 MiB (15%)
Alignment                                : Split accross interleaves
Interleave, duration                     : 42  ms (1.00 video frame)
Interleave, preload duration             : 500  ms



Скриншоты:
[+] Всего файлов в раздаче - 2:
Isle.of.Dogs.2018.HDRip.R.G.Resident.avi2.05 GB
Isle.of.Dogs.2018.HDRip.R.G.Resident.Rus.Full.srt112.53 kB

Текущая раздача:
ДатаКомментарии    РазмерПиры
2018-07-06 U Остров собак / Isle of Dogs (2018) HDRip от R.G.Resident | iTunes 2.05 GB ↑ 49 ↓ 22

Показать еще раздачи по запросу остров:
Вчера U Остров собак / Isle of Dogs (2018) BDRip 1080p от qqss44 & MegaPeer | iTunes 4.20 GB ↑ 32 ↓ 6
Вчера U Остров собак / Isle of Dogs (2018) BDRip от MegaPeer | iTunes 1.41 GB ↑ 24 ↓ 11
2018-07-10 U Остров собак / Isle of Dogs (2018) HDRip от Scarabey | Локализованная версия | iTunes 1К1.45 GB ↑ 37 ↓ 13
2018-07-08 U Остров собак / Isle of Dogs (2018) HDRip от Scarabey | iTunes 1.40 GB ↑ 64 ↓ 17
2018-07-07 U Остров собак / Isle of Dogs (2018) HDRip от MegaPeer | iTunes 748.32 MB ↑ 46 ↓ 11
2018-07-07 U Остров исправления (2017) WEB-DLRip от GeneralFilm 745.25 MB ↑ 219 ↓ 71
2018-07-07 U Остров исправления (2017) WEB-DLRip от Files-x 1.11 GB ↑ 150 ↓ 78

Отзывы
Зарегистрируйтесь чтобы добавить комментарий.
Обратная связь
Copyleft ©