↑↓Torrent.by
Поиск
Логин: Регистрация
Пароль: Восстановить пароль
Загрузка...

Остров собак / Isle of Dogs (2018) BDRip 1080p от ExKinoRay | iTunes

Скачать ostrov-sobak-isle-of-dogs-2018-bdrip-1080p-ot-exkinoray-itunes.torrent
U Магнитная ссылка Размер: 7.26 GB Раздают: 204 Качают: 137 Добавлен: 2018-07-06 20:43:05
Остров собак / Isle of Dogs (2018) BDRip 1080p от ExKinoRay | iTunes

Название: Остров собак
Оригинальное название: Isle of Dogs
Год выхода: 2018
Жанр: Мультфильм, фантастика, фэнтези, драма, комедия, приключения, полнометражный
Режиссер: Уэс Андерсон
В ролях: Брайан Крэнстон, Кою Ранкин, Эдвард Нортон, Боб Бэлабан, Билл Мюррей, Джефф Голдблюм, Кунъити Номура, Акира Такаяма, Грета Гервиг, Фрэнсис МакДорманд

О фильме: История 12-летнего мальчика Атари Кобаяши, опекаемого коррумпированным мэром Кобаяши. Когда по Указу последнего все домашние собаки города Мегасаки изгоняются на громадную свалку, Атари в одиночку отправляется на миниатюрном летательном аппарате на мусорный остров, чтобы найти своего верного пса по прозвищу Спотс. Там на острове вместе со стаей новых друзей-дворняг он начнет эпичное путешествие, которое решит будущую судьбу всей Префектуры.

Страна: США, Германия
Студия: American Empirical Pictures, Indian Paintbrush, Studio Babelsberg
Продолжительность: 01:41:09
Перевод: Дублированный | iTunes

Качество: BDRip 1080p
Видео: MPEG-4 AVC, 1920x804, 8385 Kbit/s, 23.976 fps
Звук:
Аудио #01: 48 kHz, AC3, 5.1, 384 Kbps | iTunes | RUS |
Аудио #02: 48 kHz, DTS, 5.1, 1510 Kbps | Оригинал |  ENG |
Субтитры: Русские (full), английские

Релиз: Автор релиза:


[+] MI
General
Unique ID                   : 225366877824466994693303267988226031399 (0xA98C14F3F585F52A8CA088B282E9BF27)
Complete name               : D:Video111Isle.of.Dogs.2018.BDRip.1080p.ExKinoRay.mkv
Format                      : Matroska
Format version              : Version 4 / Version 2
File size                   : 7.26 GiB
Duration                    : 1 h 41 min
Overall bit rate            : 10.3 Mb/s
Movie name                  : Isle of Dogs 2018 from ExKinoRay
Encoded date                : UTC 2018-07-06 06:45:10
Writing application         : mkvmerge v7.3.0 ('Nouages') 64bit built on Oct 22 2014 18:53:34
Writing library             : libebml v1.3.0 + libmatroska v1.4.1

Video
ID                          : 1
Format                      : AVC
Format/Info                 : Advanced Video Codec
Format profile              : High@L4.1
Format settings             : CABAC / 4 Ref Frames
Format settings, CABAC      : Yes
Format settings, ReFrames   : 4 frames
Codec ID                    : V_MPEG4/ISO/AVC
Duration                    : 1 h 41 min
Bit rate                    : 8 385 kb/s
Width                       : 1 920 pixels
Height                      : 804 pixels
Display aspect ratio        : 2.40:1
Frame rate mode             : Constant
Frame rate                  : 23.976 (24000/1001) FPS
Color space                 : YUV
Chroma subsampling          : 4:2:0
Bit depth                   : 8 bits
Scan type                   : Progressive
Bits/(Pixel*Frame)          : 0.227
Stream size                 : 5.92 GiB (82%)
Writing library             : x264 core 155 r2867+74 66b5600 t_mod_Custom_2 [8-bit@all X86_64]
Encoding settings           : cabac=1 / ref=4 / deblock=1:-3:-3 / analyse=0x3:0x113 / me=umh / subme=10 / psy=1 / fade_compensate=0.00 / psy_rd=0.90:0.10 / mixed_ref=1 / me_range=48 / chroma_me=1 / trellis=2 / 8x8dct=1 / cqm=0 / deadzone=21,11 / fast_pskip=0 / chroma_qp_offset=-2 / threads=18 / lookahead_threads=3 / sliced_threads=0 / nr=0 / decimate=1 / interlaced=0 / bluray_compat=0 / constrained_intra=0 / fgo=0 / bframes=8 / b_pyramid=2 / b_adapt=2 / b_bias=0 / direct=3 / weightb=1 / open_gop=0 / weightp=2 / keyint=250 / keyint_min=23 / scenecut=40 / intra_refresh=0 / rc_lookahead=40 / rc=crf / mbtree=0 / crf=18.0000 / qcomp=0.70 / qpmin=0:0:0 / qpmax=69:69:69 / qpstep=4 / vbv_maxrate=35000 / vbv_bufsize=35000 / crf_max=0.0 / nal_hrd=none / filler=0 / ip_ratio=1.40 / pb_ratio=1.30 / aq=3:0.90 / aq-sensitivity=10.00 / aq-factor=1.00:1.00:1.00 / aq2=0 / aq3=2:[0.50:0.50]:[0.50:0.50]:[0.50:0.50]:[0.50:0.50] / aq3-sensitivity=10.00 / aq3-factor=[1.00:1.00]:[1.00:1.00]:[1.00:1.00] / aq3-boundary=192:64:24
Language                    : English
Default                     : Yes
Forced                      : No
Color range                 : Limited
Matrix coefficients         : BT.709

Audio #1
ID                          : 2
Format                      : AC-3
Format/Info                 : Audio Coding 3
Codec ID                    : A_AC3
Duration                    : 1 h 41 min
Bit rate mode               : Constant
Bit rate                    : 384 kb/s
Channel(s)                  : 6 channels
Channel positions           : Front: L C R, Side: L R, LFE
Sampling rate               : 48.0 kHz
Frame rate                  : 31.250 FPS (1536 SPF)
Bit depth                   : 16 bits
Compression mode            : Lossy
Stream size                 : 278 MiB (4%)
Title                       : iTunes
Language                    : Russian
Service kind                : Complete Main
Default                     : Yes
Forced                      : Yes

Audio #2
ID                          : 3
Format                      : DTS
Format/Info                 : Digital Theater Systems
Codec ID                    : A_DTS
Duration                    : 1 h 41 min
Bit rate mode               : Constant
Bit rate                    : 1 509 kb/s
Channel(s)                  : 6 channels
Channel positions           : Front: L C R, Side: L R, LFE
Sampling rate               : 48.0 kHz
Frame rate                  : 93.750 FPS (512 SPF)
Bit depth                   : 24 bits
Compression mode            : Lossy
Stream size                 : 1.07 GiB (15%)
Title                       : Original
Language                    : English
Default                     : No
Forced                      : No

Text #1
ID                          : 4
Format                      : UTF-8
Codec ID                    : S_TEXT/UTF8
Codec ID/Info               : UTF-8 Plain Text
Duration                    : 1 h 33 min
Bit rate                    : 94 b/s
Count of elements           : 1215
Stream size                 : 65.1 KiB (0%)
Title                       : Full
Language                    : Russian
Default                     : No
Forced                      : No

Text #2
ID                          : 5
Format                      : UTF-8
Codec ID                    : S_TEXT/UTF8
Codec ID/Info               : UTF-8 Plain Text
Duration                    : 1 h 33 min
Bit rate                    : 56 b/s
Count of elements           : 1203
Stream size                 : 38.8 KiB (0%)
Title                       : Full
Language                    : English
Default                     : No
Forced                      : No

Text #3
ID                          : 6
Format                      : UTF-8
Codec ID                    : S_TEXT/UTF8
Codec ID/Info               : UTF-8 Plain Text
Duration                    : 1 h 35 min
Bit rate                    : 63 b/s
Count of elements           : 1429
Stream size                 : 44.4 KiB (0%)
Title                       : SDH
Language                    : English
Default                     : No
Forced                      : No

Menu
00:00:00.000                : en:00:00:00.000
00:03:36.049                : en:00:03:36.049
00:07:53.181                : en:00:07:53.181
00:13:41.195                : en:00:13:41.195
00:16:39.373                : en:00:16:39.373
00:20:45.035                : en:00:20:45.035
00:26:04.312                : en:00:26:04.312
00:29:27.265                : en:00:29:27.265
00:35:58.573                : en:00:35:58.573
00:40:36.475                : en:00:40:36.475
00:44:46.433                : en:00:44:46.433
00:48:15.100                : en:00:48:15.100
00:52:07.499                : en:00:52:07.499
00:56:06.780                : en:00:56:06.780
00:59:07.085                : en:00:59:07.085
01:03:17.710                : en:01:03:17.710
01:08:45.079                : en:01:08:45.079
01:14:03.230                : en:01:14:03.230
01:16:34.965                : en:01:16:34.965
01:20:46.925                : en:01:20:46.925
01:23:36.219                : en:01:23:36.219
01:30:09.737                : en:01:30:09.737
01:33:02.493                : en:01:33:02.493
01:35:41.235                : en:01:35:41.235



Скриншоты:
[+] Всего файлов в раздаче - 1:
Isle.of.Dogs.2018.BDRip.1080p.ExKinoRay.mkv7.26 GB

Текущая раздача:
ДатаКомментарии    РазмерПиры
2018-07-06 U Остров собак / Isle of Dogs (2018) BDRip 1080p от ExKinoRay | iTunes 2 К 7.26 GB ↑ 204 ↓ 137

Показать еще раздачи по запросу остров:
2018-07-16 U Остров собак / Isle of Dogs (2018) BDRip 1080p от qqss44 & MegaPeer | iTunes 4.20 GB ↑ 32 ↓ 6
2018-07-16 U Остров собак / Isle of Dogs (2018) BDRip от MegaPeer | iTunes 1.41 GB ↑ 27 ↓ 14
2018-07-10 U Остров собак / Isle of Dogs (2018) HDRip от Scarabey | Локализованная версия | iTunes 1К1.45 GB ↑ 45 ↓ 13
2018-07-08 U Остров собак / Isle of Dogs (2018) HDRip от Scarabey | iTunes 1.40 GB ↑ 74 ↓ 17
2018-07-07 U Остров собак / Isle of Dogs (2018) HDRip от MegaPeer | iTunes 748.32 MB ↑ 47 ↓ 11
2018-07-07 U Остров исправления (2017) WEB-DLRip от GeneralFilm 745.25 MB ↑ 253 ↓ 74
2018-07-07 U Остров исправления (2017) WEB-DLRip от Files-x 1.11 GB ↑ 160 ↓ 79

Отзывы
saintwolf
Не верьте рейтингу. Мульт очень японский и очень не для всех.

programmer
Судя по скринам, рисовка криповая какая-то.

Зарегистрируйтесь чтобы добавить комментарий.
Обратная связь
Copyleft ©