↑↓Torrent.by
Поиск
Логин: Регистрация
Пароль: Восстановить пароль
Загрузка...

Сладостный край / Sweet Country (2017) HDRip-AVC от OlLanDGroup | HDRezka Studio

Скачать sladostnyy-kray-sweet-country-2017-hdrip-avc-ot-ollandgroup-hdrezka-studio.torrent
U Магнитная ссылка Размер: 1.81 GB Раздают: 95 Качают: 36 Добавлен: 2018-07-06 20:43:30
Сладостный край / Sweet Country (2017) HDRip-AVC от OlLanDGroup | HDRezka Studio

Сладостный край / Sweet Country
«Justice seen to be done just isn't enough»

Год выпуска: 2017
Страна: Австралия
Производство: Bunya Productions, Sweet Country Films
Жанр:  Триллер, драма, криминал, приключения, вестерн

Режиссёр: Уорвик Торнтон
В ролях: Сэм Нилл, Юэн Лесли, Томас М.Райт, Брайан Браун, Мэтт Дей, Анни Финстерер, Гамильтон Моррис, Тремейн Треворн Дулан, Гибсон Джон, Натассия Гори Фербер

Перевод: Профессиональный (многоголосый, закадровый) | HDrezka Studio
Субтитры: Английские (полные, SDH)
Реклама: Отсутствует

Описание: 1929 год, север Австралии. Защищая свою жизнь, абориген Сэм убивает белого землевладельца. Вместе с беременной женой он пускается в бега — за убийство белого, к тому же героя войны, его ожидает жестокая расправа. Беглецов преследует сержант Флетчер, землевладелец и следопыт. Флетчер мечтает поймать беглеца и предать его суду за убийство белого человека. Сэм опытный бушмен и легко может уйти от преследователей. Но не его жена.

Качество: HDRip-AVC
Продолжительность: 01:52:54

Формат: MKV
Видео кодек: MPEG-4 AVC
Аудио кодек: AC3
Видео: 1024x428 (2.40:1), 24,000 fps, x264 ~1 656 kbps avg, 0.157 bit/pixel
Аудио: 48 kHz, AC3 Dolby Digital, 2 (L,R) ch, ~192.00 kbps avg | RUS (HDRezka)
Аудио: 48 kHz, AC3 Dolby Digital, 3/2 (L,C,R,l,r) + LFE ch, ~448.00 kbps avg | ENG

Цифровой релиз:
Дата премьеры (мир): 6 сентября 2017

Релиз: Rip by:


[+] MediaInfo

Общее
Уникальный идентификатор                 : 185701884947031978429192172697188086782 (0x8BB4E1D0F811C7F995EDC0F48040B3FE)
Полное имя                               : F:OlLanDGroupSweet.Country.2017.BDRip(AVC).OlLanDGroup.mkv
Формат                                   : Matroska
Версия формата                           : Version 4 / Version 2
Размер файла                             : 1,81 Гбайт
Продолжительность                        : 1 ч. 52 м.
Общий поток                              : 2297 Кбит/сек
Название фильма                          : Sweet.Country.2017   #TorpedoUK#
Дата кодирования                         : UTC 2018-07-05 19:22:20
Программа кодирования                    : mkvmerge v8.3.0 ('Over the Horizon') 64bit
Библиотека кодирования                   : libebml v1.3.1 + libmatroska v1.4.2
Обложка                                  : Yes
Attachments                              : small_cover.jpg / small_cover_land.jpg / cover.jpg / cover_land.jpg

Видео
Идентификатор                            : 1
Формат                                   : AVC
Формат/Информация                        : Advanced Video Codec
Профиль формата                          : High@L4.1
Параметр CABAC формата                   : Да
Параметр ReFrames формата                : 10 кадров
Идентификатор кодека                     : V_MPEG4/ISO/AVC
Продолжительность                        : 1 ч. 52 м.
Битрейт                                  : 1656 Кбит/сек
Ширина                                   : 1024 пикселя
Высота                                   : 428 пикселей
Соотношение сторон                       : 2,40:1
Режим частоты кадров                     : Постоянный
Частота кадров                           : 24,000 кадра/сек
Цветовое пространство                    : YUV
Субдискретизация насыщенности            : 4:2:0
Битовая глубина                          : 8 бит
Тип развёртки                            : Прогрессивная
Бит/(Пиксели*Кадры)                      : 0.157
Размер потока                            : 1,31 Гбайт (72%)
Библиотека кодирования                   : x264 core 146 r2538 121396c
Настройки программы                      : cabac=1 / ref=10 / deblock=1:-3:-3 / analyse=0x3:0x113 / me=umh / subme=11 / psy=1 / psy_rd=0.97:0.05 / mixed_ref=1 / me_range=48 / chroma_me=1 / trellis=2 / 8x8dct=1 / cqm=0 / deadzone=21,11 / fast_pskip=1 / chroma_qp_offset=-3 / threads=6 / lookahead_threads=1 / sliced_threads=0 / nr=0 / decimate=1 / interlaced=0 / bluray_compat=0 / constrained_intra=0 / bframes=10 / b_pyramid=2 / b_adapt=2 / b_bias=0 / direct=3 / weightb=1 / open_gop=0 / weightp=2 / keyint=240 / keyint_min=24 / scenecut=40 / intra_refresh=0 / rc_lookahead=40 / rc=2pass / mbtree=1 / bitrate=1656 / ratetol=1.0 / qcomp=0.60 / qpmin=0 / qpmax=69 / qpstep=4 / cplxblur=20.0 / qblur=0.5 / vbv_maxrate=50000 / vbv_bufsize=62500 / nal_hrd=none / filler=0 / ip_ratio=1.40 / aq=1:1.00
Язык                                     : English
Default                                  : Да
Forced                                   : Нет

Аудио #1
Идентификатор                            : 2
Формат                                   : AC-3
Формат/Информация                        : Audio Coding 3
Расширение режима                        : CM (complete main)
Параметр Endianness формата              : Big
Идентификатор кодека                     : A_AC3
Продолжительность                        : 1 ч. 52 м.
Вид битрейта                             : Постоянный
Битрейт                                  : 192 Кбит/сек
Каналы                                   : 2 канала
Расположение каналов                     : Front: L R
Частота                                  : 48,0 КГц
Частота кадров                           : 31,250 кадров/сек (1536 spf)
Битовая глубина                          : 16 бит
Метод сжатия                             : С потерями
Размер потока                            : 155 Мбайт (8%)
Заголовок                                : MVO [HDRezka Studio]
Язык                                     : Russian
Default                                  : Да
Forced                                   : Нет

Аудио #2
Идентификатор                            : 3
Формат                                   : AC-3
Формат/Информация                        : Audio Coding 3
Расширение режима                        : CM (complete main)
Параметр Endianness формата              : Big
Идентификатор кодека                     : A_AC3
Продолжительность                        : 1 ч. 52 м.
Вид битрейта                             : Постоянный
Битрейт                                  : 448 Кбит/сек
Каналы                                   : 6 каналов
Расположение каналов                     : Front: L C R, Side: L R, LFE
Частота                                  : 48,0 КГц
Частота кадров                           : 31,250 кадров/сек (1536 spf)
Битовая глубина                          : 16 бит
Метод сжатия                             : С потерями
Размер потока                            : 362 Мбайт (20%)
Заголовок                                : Original
Язык                                     : English
Default                                  : Нет
Forced                                   : Нет

Текст #1
Идентификатор                            : 4
Формат                                   : UTF-8
Идентификатор кодека                     : S_TEXT/UTF8
Идентификатор кодека/Информация          : UTF-8 Plain Text
Продолжительность                        : 1 ч. 48 м.
Битрейт                                  : 23 бит/сек
Count of elements                        : 746
Размер потока                            : 19,0 Кбайт (0%)
Заголовок                                : Full
Язык                                     : English
Default                                  : Нет
Forced                                   : Нет

Текст #2
Идентификатор                            : 5
Формат                                   : UTF-8
Идентификатор кодека                     : S_TEXT/UTF8
Идентификатор кодека/Информация          : UTF-8 Plain Text
Продолжительность                        : 1 ч. 52 м.
Битрейт                                  : 26 бит/сек
Count of elements                        : 885
Размер потока                            : 21,7 Кбайт (0%)
Заголовок                                : SDH
Язык                                     : English
Default                                  : Нет
Forced                                   : Нет

Меню
00:00:00.000                             : en:Chapter 1
00:00:12.417                             : en:Chapter 2
00:10:36.625                             : en:Chapter 3
00:21:34.958                             : en:Chapter 4
00:30:38.583                             : en:Chapter 5
00:41:48.875                             : en:Chapter 6
00:51:32.958                             : en:Chapter 7
01:01:13.417                             : en:Chapter 8
01:11:45.042                             : en:Chapter 9
01:20:18.667                             : en:Chapter 10
01:31:00.000                             : en:Chapter 11
01:40:42.000                             : en:Chapter 12
01:49:31.792                             : en:Chapter 13



Скриншоты:
[+] Всего файлов в раздаче - 1:
Sweet.Country.2017.BDRip(AVC).OlLanDGroup.mkv1.81 GB

Текущая раздача:
ДатаКомментарии    РазмерПиры
2018-07-06 U Сладостный край / Sweet Country (2017) HDRip-AVC от OlLanDGroup | HDRezka Studio 1.81 GB ↑ 95 ↓ 36

Похожие раздачи по запросу - сладостный:
2018-07-15 U Сладостный край / Sweet Country (2017) BDRip 1080p | P, L1 9.90 GB ↑ 52 ↓ 39
2018-06-27 U Сладостный край / Sweet Country (2017) BDRip 720p | BadBajo 7.07 GB ↑ 39 ↓ 14
2018-06-26 U Сладостный край / Sweet Country (2017) HDRip от ExKinoRay | BadBajo 1.45 GB ↑ 135 ↓ 37

Отзывы
Зарегистрируйтесь чтобы добавить комментарий.
Обратная связь
Copyleft ©