↑↓Torrent.by
Поиск
Логин: Регистрация
Пароль: Восстановить пароль
Загрузка...

Первые (2017) WEB-DLRip 1080p | Line

Скачать pervye-2017-web-dlrip-1080p-line.torrent
U Магнитная ссылка Размер: 3.78 GB Раздают: 72 Качают: 119 Добавлен: 2018-07-08 07:09:31
Первые (2017) WEB-DLRip 1080p | Line

Название: Первые
Год выхода: 2017
Жанр: Драма, приключения, история
Режиссер: Дмитрий Суворов
В ролях: Наиль Абдрахманов, Алина Ланина, Евгений Ткачук, Валерий Баринов, Данила Якушев, Сергей Рост, Сергей Терещенко, Александр Дьяченко, Егор Тимцуник

О фильме: Лента расскажет о подвиге и любви супругов Прончищевых — полярных исследователей Арктики в составе Ленско-Енисейского отряда Великой Северной экспедиции.

Страна: Россия
Студия: КАРО-Продакшн
Продолжительность: 01:36:15
Перевод: Русский язык

Файл
Кодек: MPEG-4 AVC
Качество: WEB-DLRip 1080p
Видео: 1920x858, 5120kb/s, 24.000fps
Звук: 512kb/s, 2ch, 48000kHz, AAC [RUS] | Line
Субтитры: Отсутствуют

РЕКЛАМА ОТСУТСТВУЕТ


[+] MI

Формат                                   : Matroska
Версия формата                           : Version 4 / Version 2
Размер файла                             : 3,78 Гбайт
Продолжительность                        : 1 ч. 36 м.
Общий поток                              : 5625 Кбит/сек
Дата кодирования                         : UTC 2018-07-08 17:18:33
Программа кодирования                    : mkvmerge v24.0.0 ('Beyond The Pale') 64-bit
Библиотека кодирования                   : libebml v1.3.6 + libmatroska v1.4.9

Видео
Идентификатор                            : 1
Формат                                   : AVC
Формат/Информация                        : Advanced Video Codec
Профиль формата                          : High@L4
Настройки формата                        : CABAC / 4 Ref Frames
Параметр CABAC формата                   : Да
Параметр RefFrames формата               : 4 кадра
Идентификатор кодека                     : V_MPEG4/ISO/AVC
Продолжительность                        : 1 ч. 36 м.
Битрейт                                  : 5120 Кбит/сек
Ширина                                   : 1920 пикселей
Высота                                   : 858 пикселей
Соотношение сторон                       : 2,25:1
Режим частоты кадров                     : Постоянный
Частота кадров                           : 24,000 кадра/сек
Цветовое пространство                    : YUV
Субдискретизация насыщенности            : 4:2:0
Битовая глубина                          : 8 бит
Тип развёртки                            : Прогрессивная
Бит/(Пиксели*Кадры)                      : 0.130
Размер потока                            : 3,44 Гбайт (91%)
Библиотека кодирования                   : x264 core 142
Настройки программы                      : cabac=1 / ref=3 / deblock=1:0:0 / analyse=0x3:0x113 / me=hex / subme=7 / psy=1 / psy_rd=1.00:0.00 / mixed_ref=1 / me_range=16 / chroma_me=1 / trellis=1 / 8x8dct=1 / cqm=0 / deadzone=21,11 / fast_pskip=1 / chroma_qp_offset=-2 / threads=108 / lookahead_threads=6 / sliced_threads=0 / nr=0 / decimate=1 / interlaced=0 / bluray_compat=0 / constrained_intra=0 / bframes=6 / b_pyramid=2 / b_adapt=1 / b_bias=0 / direct=1 / weightb=1 / open_gop=0 / weightp=2 / keyint=48 / keyint_min=25 / scenecut=0 / intra_refresh=0 / rc_lookahead=40 / rc=2pass / mbtree=1 / bitrate=5120 / ratetol=1.0 / qcomp=0.60 / qpmin=0 / qpmax=69 / qpstep=4 / cplxblur=20.0 / qblur=0.5 / vbv_maxrate=7680 / vbv_bufsize=20480 / nal_hrd=none / filler=0 / ip_ratio=1.40 / aq=1:1.00
Язык                                     : English
Default                                  : Да
Forced                                   : Нет

Аудио
Идентификатор                            : 2
Формат                                   : AAC
Формат/Информация                        : Advanced Audio Codec
Профиль формата                          : LC
Идентификатор кодека                     : A_AAC-2
Продолжительность                        : 1 ч. 36 м.
Битрейт                                  : 512 Кбит/сек
Каналы                                   : 2 канала
Расположение каналов                     : Front: L R
Частота                                  : 48,0 КГц
Частота кадров                           : 46,875 кадров/сек (1024 SPF)
Метод сжатия                             : С потерями
Размер потока                            : 352 Мбайт (9%)
Язык                                     : English
Default                                  : Да
Forced                                   : Нет



Скриншоты:
[+] Всего файлов в раздаче - 1:
Первые RUS 2017 [WEB-DL 1080p].mkv3.78 GB

Текущая раздача:
ДатаКомментарии    РазмерПиры
2018-07-08 U Первые (2017) WEB-DLRip 1080p | Line 3.78 GB ↑ 72 ↓ 119

Показать еще раздачи по запросу первые:
2018-09-16 U Первые / The First [S01] (2018) WEB-DLRip 720p | IdeaFilm 10.89 GB ↑ 57 ↓ 45
2018-09-16 U Первые / The First [S01] (2018) WEB-DLRip 1080p | IdeaFilm 18.30 GB ↑ 71 ↓ 79
2018-09-16 U Первые / The First [S01] (2018) WEB-DLRip | IdeaFilm 4.85 GB ↑ 174 ↓ 139
2018-09-15 U Первые / The First [S01] (2018) WEBRip | ColdFilm 2.98 GB ↑ 163 ↓ 77
2018-09-15 U Первые / The First [S01] (2018) WEBRip 720p | ColdFilm 1К10.19 GB ↑ 173 ↓ 137
2018-07-08 U Первые (2017) WEB-DLRip от R.G.Resident | Line 1.37 GB ↑ 732 ↓ 151
2018-07-08 U Первые (2017) WEB-DLRip от GeneralFilm | Line 1К744.88 MB ↑ 439 ↓ 94

Отзывы
Зарегистрируйтесь чтобы добавить комментарий.
Обратная связь
Copyleft ©