↑↓Torrent.by
Поиск
Логин: Регистрация
Пароль: Восстановить пароль
Загрузка...

Охотники за разумом / Mindhunters (2004) WEB-DL 1080p | D, P, P2, A | Open Matte

Скачать ohotniki-za-razumom-mindhunters-2004-web-dl-1080p-d-p-p2-a-open-matte.torrent
U Магнитная ссылка Размер: 11.29 GB Раздают: 35 Качают: 11 Добавлен: 2018-07-08 08:09:45
Охотники за разумом / Mindhunters (2004) WEB-DL 1080p | D, P, P2, A | Open Matte

Название: Охотники за разумом
Оригинальное название: Mindhunters
Год выхода: 2004
Жанр:  триллер, криминал, детектив
Режиссер: Ренни Харлин
В ролях: Кэтрин Моррис, Джонни Ли Миллер, ЭлЭл Кул Джей, Кристиан Слэйтер, Клифтон Коллинз мл., Вэл Килмер, Эйон Бэйли, Уилл Кемп, Патрисия Веласкес, Кассандра Белл

О фильме: На удаленном острове семь будущих агентов ФБР проходят решающий тест, чтобы попасть в элитный отдел «охотников за разумом» — людей, по мельчайшим уликам и любым сведениям составляющих психологические профили опаснейших преступников.

Но испытание становится слишком реальным, когда в их группе оказывается настоящий серийный убийца. Успеют ли оставшиеся в живых выявить маньяка в своих рядах, пока он не расправился с каждым поодиночке?

Страна: США, Нидерланды, Великобритания, Финляндия
Студия: Avenue Pictures Productions, Dimension Films, Weed Road Pictures
Продолжительность: 01:45:52
Перевод: Профессиональный (дублированный) R5 + Профессиональный (двухголосый, закадровый) Tycoon Studio + Профессиональный (многоголосый, закадровый) + Авторский (одноголосый, закадровый) А.Гаврилов

Файл
Качество: WEB-DL 1080p | Open Matte
Формат: Matroska
Видео: 1920x1080 at 23.976 fps, MPEG-4 AVC, ~9293 kbps avg
Aудио#1: Russian: 48 kHz, AC3, 3/2 (L,C,R,l,r) + LFE ch, ~448 kbps |Дубляж, R5|
Аудио#2: Russian: 48 kHz, DTS, 3/2 (L,C,R,l,r) + LFE ch, ~1509 kbps |Многоголосый закадровый|
Aудио#3: Russian: 48 kHz, AC3, 3/2 (L,C,R,l,r) + LFE ch, ~448 kbps |Двухголосый закадровый, Tycoon Studio|
Аудио#4: Russian: 48 kHz, DTS, 3/2 (L,C,R,l,r) + LFE ch, ~1509 kbps |Авторский, А.Гаврилов|
Aудио#5: English: 48 kHz, DTS, 3/2 (L,C,R,l,r) + LFE ch, ~1509 kbps
Аудио#6: English: 48 kHz, EAC3, 2/0 (L,R) ch, ~224 kbps avg |Amazon|
Субтитры: Russian, English

***Исходник видео: Amazon STARZ - периодически появляется логотип.
***Релиз: spartanec163.


[+] Знаете ли вы, что...
В картину приглашали Райана Филиппа, Риз Уизерспун, Кристофера Уокена, Мартина Шина и Гэри Бьюзи.
Специально для фильма в Лондоне были подготовлены 450 визуальных эффектов. 10 художников работали над ними в течение девяти месяцев.
Консультантом выступил Джеймс Гринлиф, настоящий агент ФБР.
Для фильма сняли сразу несколько финалов. С конечным вариантом определились только после тест-просмотров.
Слэйтер играет героя по имени J. D. Также звали его персонажа в фильме «Смертельное влечение» (1988).
В сценах в конце фильма с участием персонажа по имени Винс (его попытка найти патроны к пистолету), в каждом последующем кадре пистолет в руках Винса таинственным образом меняется — из Beretta 9mm в Glock 17 и обратно.
В начале фильма один из героев выключает люминесцентный светильник, выкрутив из него стартер. На самом деле после этого лампа должна была продолжать гореть.






[+] MediaInfo
Общее
Уникальный идентификатор                 : 228514697764106983923498005756344660206 (0xABEA54755A1BFFA28754096472F1F0EE)
Полное имя                               : Mindhunters.2004.Open.Matte.1080p.WEB-DL.4xRus.Eng.mkv
Формат                                   : Matroska
Версия формата                           : Version 4 / Version 2
Размер файла                             : 11,3 Гбайт
Продолжительность                        : 1 ч. 45 м.
Режим общего битрейта                    : Переменный
Общий поток                              : 15,2 Мбит/сек
Название фильма                          : Release by spartanec163
Дата кодирования                         : UTC 2017-07-22 11:39:52
Программа кодирования                    : mkvmerge v8.3.0 ('Over the Horizon') 64bit
Библиотека кодирования                   : libebml v1.3.1 + libmatroska v1.4.2
Attachment                               : Yes

Видео
Идентификатор                            : 1
Формат                                   : AVC
Формат/Информация                        : Advanced Video Codec
Профиль формата                          : High@L4.0
Параметр CABAC формата                   : Да
Параметр ReFrames формата                : 4 кадра
Идентификатор кодека                     : V_MPEG4/ISO/AVC
Продолжительность                        : 1 ч. 45 м.
Вид битрейта                             : Переменный
Битрейт                                  : 9293 Кбит/сек
Максимальный битрейт                     : 15,0 Мбит/сек
Ширина                                   : 1920 пикселей
Высота                                   : 1080 пикселей
Соотношение сторон                       : 16:9
Режим частоты кадров                     : Постоянный
Частота кадров                           : 23,976 кадра/сек
Цветовое пространство                    : YUV
Субдискретизация насыщенности            : 4:2:0
Битовая глубина                          : 8 бит
Тип развёртки                            : Прогрессивная
Бит/(Пиксели*Кадры)                      : 0.187
Размер потока                            : 6,88 Гбайт (61%)
Заголовок                                : WEB-DL 1080p (Amazon)
Язык                                     : English
Default                                  : Да
Forced                                   : Нет
Основные цвета                           : BT.709
Характеристики трансфера                 : BT.709
Коэффициенты матрицы                     : BT.709

Аудио #1
Идентификатор                            : 2
Формат                                   : AC-3
Формат/Информация                        : Audio Coding 3
Расширение режима                        : CM (complete main)
Параметр Endianness формата              : Big
Идентификатор кодека                     : A_AC3
Продолжительность                        : 1 ч. 45 м.
Вид битрейта                             : Постоянный
Битрейт                                  : 448 Кбит/сек
Каналы                                   : 6 каналов
Расположение каналов                     : Front: L C R, Side: L R, LFE
Частота                                  : 48,0 КГц
Битовая глубина                          : 16 бит
Метод сжатия                             : С потерями
Размер потока                            : 340 Мбайт (3%)
Заголовок                                : AC3 5.1 448Kbps (Дубляж)
Язык                                     : Russian
Default                                  : Да
Forced                                   : Нет

Аудио #2
Идентификатор                            : 3
Формат                                   : DTS
Формат/Информация                        : Digital Theater Systems
Режим                                    : 16
Параметр Endianness формата              : Big
Идентификатор кодека                     : A_DTS
Продолжительность                        : 1 ч. 45 м.
Вид битрейта                             : Постоянный
Битрейт                                  : 1509 Кбит/сек
Каналы                                   : 6 каналов
Расположение каналов                     : Front: L C R, Side: L R, LFE
Частота                                  : 48,0 КГц
Битовая глубина                          : 24 бит
Метод сжатия                             : С потерями
Размер потока                            : 1,12 Гбайт (10%)
Заголовок                                : DTS 5.1 1510Kbps (Профессиональный, многоголосый)
Язык                                     : Russian
Default                                  : Нет
Forced                                   : Нет

Аудио #3
Идентификатор                            : 4
Формат                                   : AC-3
Формат/Информация                        : Audio Coding 3
Расширение режима                        : CM (complete main)
Параметр Endianness формата              : Big
Идентификатор кодека                     : A_AC3
Продолжительность                        : 1 ч. 45 м.
Вид битрейта                             : Постоянный
Битрейт                                  : 448 Кбит/сек
Каналы                                   : 6 каналов
Расположение каналов                     : Front: L C R, Side: L R, LFE
Частота                                  : 48,0 КГц
Битовая глубина                          : 16 бит
Метод сжатия                             : С потерями
Размер потока                            : 340 Мбайт (3%)
Заголовок                                : AC3 5.1 448Kbps (Профессиональный, двухголосый - Tycoon)
Язык                                     : Russian
Default                                  : Нет
Forced                                   : Нет

Аудио #4
Идентификатор                            : 5
Формат                                   : DTS
Формат/Информация                        : Digital Theater Systems
Режим                                    : 16
Параметр Endianness формата              : Big
Идентификатор кодека                     : A_DTS
Продолжительность                        : 1 ч. 45 м.
Вид битрейта                             : Постоянный
Битрейт                                  : 1509 Кбит/сек
Каналы                                   : 6 каналов
Расположение каналов                     : Front: L C R, Side: L R, LFE
Частота                                  : 48,0 КГц
Битовая глубина                          : 24 бит
Метод сжатия                             : С потерями
Размер потока                            : 1,12 Гбайт (10%)
Заголовок                                : DTS 5.1 1510Kbps (Авторский, одноголосый - А. Гаврилов)
Язык                                     : Russian
Default                                  : Нет
Forced                                   : Нет

Аудио #5
Идентификатор                            : 6
Формат                                   : DTS
Формат/Информация                        : Digital Theater Systems
Режим                                    : 16
Параметр Endianness формата              : Big
Идентификатор кодека                     : A_DTS
Продолжительность                        : 1 ч. 45 м.
Вид битрейта                             : Постоянный
Битрейт                                  : 1509 Кбит/сек
Каналы                                   : 6 каналов
Расположение каналов                     : Front: L C R, Side: L R, LFE
Частота                                  : 48,0 КГц
Битовая глубина                          : 24 бит
Метод сжатия                             : С потерями
Размер потока                            : 1,12 Гбайт (10%)
Заголовок                                : DTS 5.1 1510Kbps (Оригинал, BluRay)
Язык                                     : English
Default                                  : Нет
Forced                                   : Нет

Аудио #6
Идентификатор                            : 7
Формат                                   : E-AC-3
Формат/Информация                        : Audio Coding 3
Параметр Endianness формата              : Big
Идентификатор кодека                     : A_EAC3
Продолжительность                        : 1 ч. 45 м.
Вид битрейта                             : Постоянный
Битрейт                                  : 224 Кбит/сек
Каналы                                   : 2 канала
Расположение каналов                     : Front: L R
Частота                                  : 48,0 КГц
Метод сжатия                             : С потерями
Размер потока                            : 170 Мбайт (1%)
Заголовок                                : E-AC3 2.0 224Kbps (Оригинал, Amazon)
Язык                                     : English
Default                                  : Нет
Forced                                   : Нет

Текст #1
Идентификатор                            : 8
Формат                                   : UTF-8
Идентификатор кодека                     : S_TEXT/UTF8
Идентификатор кодека/Информация          : UTF-8 Plain Text
Язык                                     : Russian
Default                                  : Нет
Forced                                   : Нет

Текст #2
Идентификатор                            : 9
Формат                                   : UTF-8
Идентификатор кодека                     : S_TEXT/UTF8
Идентификатор кодека/Информация          : UTF-8 Plain Text
Заголовок                                : SDH
Язык                                     : English
Default                                  : Нет
Forced                                   : Нет



Скриншоты:
[+] Всего файлов в раздаче - 1:
Mindhunters.2004.Open.Matte.1080p.WEB-DL.4xRus.Eng.mkv11.29 GB

Текущая раздача:
ДатаКомментарии    РазмерПиры
2018-07-08 U Охотники за разумом / Mindhunters (2004) WEB-DL 1080p | D, P, P2, A | Open Matte 11.29 GB ↑ 35 ↓ 11

Показать еще раздачи по запросу охотники:
2018-06-04 U Мистериум: Охотники на фазанов / Fasandræberne (2014) BDRip от MegaPeer | iTunes 746.04 MB ↑ 32 ↓ 10
2018-06-03 U Мистериум: Охотники на фазанов / Fasandræberne (2014) BDRip от MegaPeer | iTunes 1.46 GB ↑ 262 ↓ 95
2018-03-05 U Мистериум: Охотники на фазанов / Fasandræberne (2014) BDRip-AVC от ExKinoRay | P 1.91 GB ↑ 49 ↓ 40
2018-03-05 U Мистериум: Охотники на фазанов / Fasandræberne (2014) HDRip | P 2.15 GB ↑ 253 ↓ 29
2018-01-30 U Охотники на гангстеров / Gangster Squad (2013) BDRip 1080p от HELLYWOOD | D, A 7.88 GB ↑ 29 ↓ 63
2018-01-30 U Охотники на гангстеров / Gangster Squad (2013) BDRip-AVC | D | Лицензия 746.35 MB ↑ 54 ↓ 20
2018-01-30 U Охотники на гангстеров / Gangster Squad (2013) BDRip 720p от HELLYWOOD | Лицензия 1К4.37 GB ↑ 74 ↓ 73

Отзывы
Зарегистрируйтесь чтобы добавить комментарий.
Обратная связь
Copyleft ©