↑↓Torrent.by
Поиск
Логин: Регистрация
Пароль: Восстановить пароль
Загрузка...

Первые (2017) WEB-DLRip от R.G.Resident | Line

Скачать pervye-2017-web-dlrip-ot-r-g-resident-line.torrent
U Магнитная ссылка Размер: 1.37 GB Раздают: 402 Качают: 136 Добавлен: 2018-07-08 17:42:46
Первые (2017) WEB-DLRip от R.G.Resident | Line

Название: Первые
Год выпуска: 2017
Страна: Россия
Жанр: драма, приключения, история
Перевод: Не требуется [Русский] (Line)
Примечание: Релиз без рекламы
Продолжительность: 01:36:15
Режиссер: Дмитрий Суворов
В ролях: Наиль Абдрахманов (Василий Прончищев), Алина Ланина (Татьяна Прончищева), Евгений Ткачук (Семён Челюскин), Валерий Баринов (Витус Беринг), Данила Якушев (боцман), Сергей Рост (Фарварсон), Сергей Терещенко, Александр Дьяченко (Пётр I), Егор Тимцуник

Описание:
Лента расскажет о подвиге и любви супругов Прончищевых - полярных исследователей Арктики в составе Ленско-Енисейского отряда Великой Северной экспедиции.

 
Качество: WEB-DLRip
Формат: AVI
Видео: XviD, 720x320 (2.25:1), 1803 kbps, 24 fps, 0,326 bpp
Аудио: AC3 / 2.0 / 48 kHz / 224 kbps /
Семпл

Релиз:


[+] ОтчетМедиаИнфо

General
Complete name                            : F:Pervye.2017.WEB-DLRip.Line.R.G.Resident.avi
Format                                   : AVI
Format/Info                              : Audio Video Interleave
File size                                : 1.37 GiB
Duration                                 : 1 h 36 min
Overall bit rate                         : 2 037 kb/s
Writing application                      : VirtualDubModRus 1.5.10.2 (build 2542/release)
Writing library                          : VirtualDubMod build 2542/release

Video
ID                                       : 0
Format                                   : MPEG-4 Visual
Format profile                           : Advanced Simple@L5
Format settings, BVOP                    : 1
Format settings, QPel                    : No
Format settings, GMC                     : No warppoints
Format settings, Matrix                  : Custom
Codec ID                                 : XVID
Codec ID/Hint                            : XviD
Duration                                 : 1 h 36 min
Bit rate                                 : 1 804 kb/s
Width                                    : 720 pixels
Height                                   : 320 pixels
Display aspect ratio                     : 2.25:1
Frame rate                               : 24.000 FPS
Color space                              : YUV
Chroma subsampling                       : 4:2:0
Bit depth                                : 8 bits
Scan type                                : Progressive
Compression mode                         : Lossy
Bits/(Pixel*Frame)                       : 0.326
Stream size                              : 1.21 GiB (89%)
Writing library                          : XviD 73

Audio
ID                                       : 1
Format                                   : AC-3
Format/Info                              : Audio Coding 3
Mode extension                           : CM (complete main)
Format settings, Endianness              : Big
Codec ID                                 : 2000
Duration                                 : 1 h 36 min
Bit rate mode                            : Constant
Bit rate                                 : 224 kb/s
Channel(s)                               : 2 channels
Channel positions                        : Front: L R
Sampling rate                            : 48.0 kHz
Frame rate                               : 31.250 FPS (1536 spf)
Compression mode                         : Lossy
Stream size                              : 154 MiB (11%)
Alignment                                : Split accross interleaves
Interleave, duration                     : 42  ms (1.00 video frame)
Interleave, preload duration             : 500  ms



Скриншоты:
[+] Всего файлов в раздаче - 1:
Pervye.2017.WEB-DLRip.Line.R.G.Resident.avi1.37 GB

Текущая раздача:
ДатаКомментарии    РазмерПиры
2018-07-08 U Первые (2017) WEB-DLRip от R.G.Resident | Line 1.37 GB ↑ 402 ↓ 136

Показать еще раздачи по запросу первые:
2018-07-08 U Первые (2017) WEB-DLRip 1080p | Line 3.78 GB ↑ 70 ↓ 115
2018-07-08 U Первые (2017) WEB-DLRip от GeneralFilm | Line 1К744.88 MB ↑ 222 ↓ 86
2018-02-17 U Футбол. Лига Европы 2017-18. 1/16 финала. Первые матчи. Обзор матчей [15.02] (2018) IPTVRip 720p | 50 fps 666.77 MB ↑ 71 ↓ 9
2018-02-17 U Футбол. Лига Европы 2017-18. 1/16 финала. Первые матчи. Обзор матчей [15.02] (2018) IPTVRip 346.47 MB ↑ 39 ↓ 1
2018-02-15 U Футбол. Лига чемпионов 2017-18. Плей-офф. 1/8 финала. 1-2 дни. Первые матчи. Обзор матчей [14.02] (2018) IPTV 1080i 1.76 GB ↑ 37 ↓ 11
2017-11-12 U Футбол. Чемпионат Мира 2018. Плей-офф. Европа. Стыковые матчи. Первые матчи. Обзор [11.11] (2017) HDTVRip 382.57 MB ↑ 100 ↓ 15
2016-01-15 U Мои первые сказки (2014) PDF 138.51 MB ↑ 229 ↓ 2

Отзывы
Зарегистрируйтесь чтобы добавить комментарий.
Обратная связь
Copyleft ©